Bosson - The Best (2005) [FLAC|Lossless]<Pop, Eurodanse>

 

Создавать темы 17-Дек-2014 11:57

-Bosson - The Best (2005)- Год: 2005
Жанр: Pop, Eurodanse
Продолжительность: 00:57:18
Кодек: FLAC
Битрейт: Lossless
Трек лист:
01. One In A Million
02. I Believe
03. You Opened My Eyes
04. Where Are You
05. Efharisto
06. Never Never Never
07. Right Time
08. Over The Mountains
09. I Need Love
10. Something To Believe In
11. Love Has Got The Power
12. It's Over Now
13. A Little More Time
14. We Live
15. It's Not Over Yet

Дополнительная информация&#58;

Bosson - Ерик Стаффан Олссон (Eric Staffan Olsson), популярный шведский певец и композитор.
Широкую известность в Европе и за её пределами приобрёл после выхода песни "One In A Million" ставшей ведущей темой саунд-трека для кинофильма "Мисс Конгениальность " с Сандрой Баллок, "We Live" и "Where Are You" долгое время держались в топ-сорок в Америке.
«Быстрый и яркий, как searchlight», «одна из самых многообещающих новинок», — писал о Bosson журнал Billboard, — «этот парень поставил на колени весь топ-сорок»!
"Это - хорошо, когда люди могут ощущать, что они - не одни в своих чувствах" - говорит Bosson описывая свою музыку как символ для "наивных" чувств. Тысячи электронных писем от фанатов доказывают это.

Отчёт ЕАС&#58;

Exact Audio Copy V0.99 prebeta 3 from 28. July 2007
EAC extraction logfile from 30. March 2008, 15:02
Bosson / The Best
Used drive : PIONEER DVD-RW DVR-111D Adapter: 5 ID: 0
Read mode : Secure
Utilize accurate stream : Yes
Defeat audio cache : Yes
Make use of C2 pointers : No
Read offset correction : 48
Overread into Lead-In and Lead-Out : No
Fill up missing offset samples with silence : Yes
Delete leading and trailing silent blocks : No
Null samples used in CRC calculations : Yes
Used interface : Native Win32 interface for Win NT & 2000
Used output format : Internal WAV Routines
Sample format : 44.100 Hz; 16 Bit; Stereo
TOC of the extracted CD
Track | Start | Length | Start sector | End sector
---------------------------------------------------------
1 | 0:00.00 | 3:34.14 | 0 | 16063
2 | 3:34.14 | 3:52.08 | 16064 | 33471
3 | 7:26.22 | 3:40.42 | 33472 | 50013
4 | 11:06.64 | 4:06.56 | 50014 | 68519
5 | 15:13.45 | 3:03.02 | 68520 | 82246
6 | 18:16.47 | 3:22.22 | 82247 | 97418
7 | 21:38.69 | 3:28.06 | 97419 | 113024
8 | 25:07.00 | 4:13.63 | 113025 | 132062
9 | 29:20.63 | 3:24.39 | 132063 | 147401
10 | 32:45.27 | 3:46.62 | 147402 | 164413
11 | 36:32.14 | 3:52.40 | 164414 | 181853
12 | 40:24.54 | 5:31.07 | 181854 | 206685
13 | 45:55.61 | 3:56.29 | 206686 | 224414
14 | 49:52.15 | 3:41.05 | 224415 | 240994
15 | 53:33.20 | 3:50.17 | 240995 | 258261
Range status and errors
Selected range
Filename E:\My Rips\Bosson - 2005 - The Best\Bosson - 2005 - The Best.wav
Peak level 99.6 %
Range quality 99.9 %
Copy CRC 4B830095
Copy OK
No errors occurred
End of status report

Отчёт Audiochecker&#58;

AUDIOCHECKER v2.0 beta (build 457) - by Dester - [url=mailto:[email protected]][email protected][/url]
~~~~~~~~~~~~~~~~~~~~~~~~~~~~~~~~~~
Started at: четверг, 18. 11. 2010. - 20:40.58
15 files found
01 -===- D:\TORRENT\Bosson - The Best (2005) [NNM-club.ru]\01 - One In A Million.flac
Extracted successfully
Conclusion: this track is CDDA with probability 100%
Tempfile successfully deleted.
02 -===- D:\TORRENT\Bosson - The Best (2005) [NNM-club.ru]\02 - I Believe.flac
Extracted successfully
Conclusion: this track is CDDA with probability 100%
Tempfile successfully deleted.
03 -===- D:\TORRENT\Bosson - The Best (2005) [NNM-club.ru]\03 - You Opened My Eyes.flac
Extracted successfully
Conclusion: this track is CDDA with probability 100%
Tempfile successfully deleted.
04 -===- D:\TORRENT\Bosson - The Best (2005) [NNM-club.ru]\04 - Where Are You.flac
Extracted successfully
Conclusion: this track is CDDA with probability 100%
Tempfile successfully deleted.
05 -===- D:\TORRENT\Bosson - The Best (2005) [NNM-club.ru]\05 - Efharisto.flac
Extracted successfully
Conclusion: this track is CDDA with probability 100%
Tempfile successfully deleted.
06 -===- D:\TORRENT\Bosson - The Best (2005) [NNM-club.ru]\06 - Never Never Never.flac
Extracted successfully
Conclusion: this track is CDDA with probability 100%
Tempfile successfully deleted.
07 -===- D:\TORRENT\Bosson - The Best (2005) [NNM-club.ru]\07 - Right Time.flac
Extracted successfully
Conclusion: this track is CDDA with probability 100%
Tempfile successfully deleted.
08 -===- D:\TORRENT\Bosson - The Best (2005) [NNM-club.ru]\08 - Over The Mountains.flac
Extracted successfully
Conclusion: this track is CDDA with probability 100%
Tempfile successfully deleted.
09 -===- D:\TORRENT\Bosson - The Best (2005) [NNM-club.ru]\09 - I Need Love.flac
Extracted successfully
Conclusion: this track is CDDA with probability 100%
Tempfile successfully deleted.
10 -===- D:\TORRENT\Bosson - The Best (2005) [NNM-club.ru]\10 - Something To Believe In.flac
Extracted successfully
Conclusion: this track is CDDA with probability 100%
Tempfile successfully deleted.
11 -===- D:\TORRENT\Bosson - The Best (2005) [NNM-club.ru]\11 - Love Has Got The Power.flac
Extracted successfully
Conclusion: this track is CDDA with probability 100%
Tempfile successfully deleted.
12 -===- D:\TORRENT\Bosson - The Best (2005) [NNM-club.ru]\12 - It's Over Now.flac
Extracted successfully
Conclusion: this track is CDDA with probability 100%
Tempfile successfully deleted.
13 -===- D:\TORRENT\Bosson - The Best (2005) [NNM-club.ru]\13 - A Little More Time.flac
Extracted successfully
Conclusion: this track is CDDA with probability 100%
Tempfile successfully deleted.
14 -===- D:\TORRENT\Bosson - The Best (2005) [NNM-club.ru]\14 - We Live.flac
Extracted successfully
Conclusion: this track is CDDA with probability 100%
Tempfile successfully deleted.
15 -===- D:\TORRENT\Bosson - The Best (2005) [NNM-club.ru]\15 - It's Not Over Yet.flac
Extracted successfully
Conclusion: this track is CDDA with probability 100%
Tempfile successfully deleted.
Finished at: четверг, 18. 11. 2010. - 21:09.32 (operation time: 0:28.34)
Время раздачи: 24/7
Яндекс.Метрика
Рейтинг@Mail.ru