E-Type - Greatest Hits / Greatest Remixes (1999) 2CD [FLAC|Lossless]<Eurodance>

 

Создавать темы 17-Дек-2014 11:57

-E-Type - Greatest Hits / Greatest Remixes (1999) 2CD- Год: 1999
Жанр: Eurodance
Продолжительность: 02:02:53
Кодек: FLAC
Битрейт: Lossless
Тип раздачи: tracks+.cue
Наличие сканов в содержимом раздачи: да
Страна-производитель диска: Sweden
Формат: 2 х CD, Compilation
Издатель (лейбл): Stockholm Records
Номер по каталогу: 543 228-2-CD1
Треклист:
01. Set The World On Fire
02. This Is The Way
03. Do You Always?
04. So Dem A Com
05. Russian Lullaby
06. Free Like A Flying Demon
07. Calling Your Name
08. Back In The Loop
09. I Just Wanna Be With You
10. You Will Always Be A Part Of Me
11. Angels Crying
12. Here I Go Again
13. Princess Of Egypt
14. Hold Your Horses
15. I'm Falling
Прoдолжительность: 00:56:14

Отчёт ЕАС

Exact Audio Copy V0.99 prebeta 4 from 23. January 2008
Отчёт EAC об извлечении, выполненном 16. мая 2008, 2:44
E-Type / Greatest Hits, CD1
Дисковод: PLEXTOR DVDR   PX-712A   Adapter: 4  ID: 0
Режим чтения                 : Достоверность
Использование точного потока : Да
Отключение кэша аудио        : Да
Использование указателей C2  : Нет
Коррекция смещения при чтении                     : 30
Способность читать области Lead-in и Lead-out     : Нет
Заполнение пропущенных сэмплов тишиной            : Да
Удаление блоков с тишиной в начале и конце        : Нет
При вычислениях CRC использовались нулевые сэмплы : Да
Интерфейс                                         : Встроенный Win32-интерфейс для Win NT/2000
Выходной формат : Внутренние WAV-операции
Формат сэмплов  : 44.100 Гц; 16 бит; стерео
TOC извлечённого CD
     Трек |   Старт  | Длительность | Начальный сектор | Конечный сектор
    ---------------------------------------------------------------------
       1  |  0:00.00 |    3:44.38   |           0      |      16837
       2  |  3:44.38 |    3:56.27   |       16838      |      34564
       3  |  7:40.65 |    4:09.65   |       34565      |      53304
       4  | 11:50.55 |    3:31.50   |       53305      |      69179
       5  | 15:22.30 |    3:13.68   |       69180      |      83722
       6  | 18:36.23 |    3:35.40   |       83723      |      99887
       7  | 22:11.63 |    3:37.50   |       99888      |     116212
       8  | 25:49.38 |    3:26.33   |      116213      |     131695
       9  | 29:15.71 |    3:51.32   |      131696      |     149052
      10  | 33:07.28 |    4:06.45   |      149053      |     167547
      11  | 37:13.73 |    3:50.32   |      167548      |     184829
      12  | 41:04.30 |    3:53.50   |      184830      |     202354
      13  | 44:58.05 |    3:39.58   |      202355      |     218837
      14  | 48:37.63 |    4:01.10   |      218838      |     236922
      15  | 52:38.73 |    3:43.59   |      236923      |     253706
Характеристики диапазона извлечения и сообщения об ошибках
Выбранный диапазон
     Имя файла D:\E-Type - Greatest Hits, CD1.wav
     Пиковый уровень 99.1 %
     Качество диапазона 100,0%
     CRC копии CEC80C7C
     Копирование завершено
Ошибок не произошло
Конец отчёта

Отчёт Audiochecker

AUDIOCHECKER v2.0 beta (build 457) - by Dester - [url=mailto:[email protected]][email protected][/url]
~~~~~~~~~~~~~~~~~~~~~~~~~~~~~~~~~~
Started at: вторник, 07. 12. 2010. - 10:05.12
15 files found
01 -===- D:\TORRENT\E-Type - Greatest Hits & Greatest Remixes - 1999 [NNM-club]\Greatest Hits CD1\01 - Set The World On Fire.flac
  Extracted successfully
  Conclusion: this track is CDDA with probability 100%
  Tempfile successfully deleted.
02 -===- D:\TORRENT\E-Type - Greatest Hits & Greatest Remixes - 1999 [NNM-club]\Greatest Hits CD1\02 - This Is The Way.flac
  Extracted successfully
  Conclusion: this track is CDDA with probability 100%
  Tempfile successfully deleted.
03 -===- D:\TORRENT\E-Type - Greatest Hits & Greatest Remixes - 1999 [NNM-club]\Greatest Hits CD1\03 - Do You Always.flac
  Extracted successfully
  Conclusion: this track is CDDA with probability 99%
  Tempfile successfully deleted.
04 -===- D:\TORRENT\E-Type - Greatest Hits & Greatest Remixes - 1999 [NNM-club]\Greatest Hits CD1\04 - So Dem A Com.flac
  Extracted successfully
  Conclusion: this track is CDDA with probability 100%
  Tempfile successfully deleted.
05 -===- D:\TORRENT\E-Type - Greatest Hits & Greatest Remixes - 1999 [NNM-club]\Greatest Hits CD1\05 - Russian Lullaby.flac
  Extracted successfully
  Conclusion: this track is CDDA with probability 100%
  Tempfile successfully deleted.
06 -===- D:\TORRENT\E-Type - Greatest Hits & Greatest Remixes - 1999 [NNM-club]\Greatest Hits CD1\06 - Free Like A Flying Demon.flac
  Extracted successfully
  Conclusion: this track is CDDA with probability 100%
  Tempfile successfully deleted.
07 -===- D:\TORRENT\E-Type - Greatest Hits & Greatest Remixes - 1999 [NNM-club]\Greatest Hits CD1\07 - Calling Your Name.flac
  Extracted successfully
  Conclusion: this track is CDDA with probability 100%
  Tempfile successfully deleted.
08 -===- D:\TORRENT\E-Type - Greatest Hits & Greatest Remixes - 1999 [NNM-club]\Greatest Hits CD1\08 - Back In The Loop.flac
  Extracted successfully
  Conclusion: this track is CDDA with probability 100%
  Tempfile successfully deleted.
09 -===- D:\TORRENT\E-Type - Greatest Hits & Greatest Remixes - 1999 [NNM-club]\Greatest Hits CD1\09 - I Just Wanna Be With You.flac
  Extracted successfully
  Conclusion: this track is CDDA with probability 100%
  Tempfile successfully deleted.
10 -===- D:\TORRENT\E-Type - Greatest Hits & Greatest Remixes - 1999 [NNM-club]\Greatest Hits CD1\10 - You Will Always Be A Part Of Me.flac
  Extracted successfully
  Conclusion: this track is CDDA with probability 100%
  Tempfile successfully deleted.
11 -===- D:\TORRENT\E-Type - Greatest Hits & Greatest Remixes - 1999 [NNM-club]\Greatest Hits CD1\11 - Angels Crying.flac
  Extracted successfully
  Conclusion: this track is CDDA with probability 100%
  Tempfile successfully deleted.
12 -===- D:\TORRENT\E-Type - Greatest Hits & Greatest Remixes - 1999 [NNM-club]\Greatest Hits CD1\12 - Here I Go Again.flac
  Extracted successfully
  Conclusion: this track is CDDA with probability 100%
  Tempfile successfully deleted.
13 -===- D:\TORRENT\E-Type - Greatest Hits & Greatest Remixes - 1999 [NNM-club]\Greatest Hits CD1\13 - Princess Of Egypt.flac
  Extracted successfully
  Conclusion: this track is CDDA with probability 100%
  Tempfile successfully deleted.
14 -===- D:\TORRENT\E-Type - Greatest Hits & Greatest Remixes - 1999 [NNM-club]\Greatest Hits CD1\14 - Hold Your Horses.flac
  Extracted successfully
  Conclusion: this track is CDDA with probability 99%
  Tempfile successfully deleted.
15 -===- D:\TORRENT\E-Type - Greatest Hits & Greatest Remixes - 1999 [NNM-club]\Greatest Hits CD1\15 - I'm Falling.flac
  Extracted successfully
  Conclusion: this track is CDDA with probability 100%
  Tempfile successfully deleted.
Finished at: вторник, 07. 12. 2010. - 10:13.54 (operation time: 0:08.41)
-

CD2

Треклист:
01. This Is The Way (Waterdreamix)
02. Back In The Loop (Antiloop Snap Out Of It Mix)
03. I Just Wanna Be With You (Andre's Boogie Buster Short Mix)
04. Calling Your Name (Antiloop Garage Club Mix)
05. Angels Crying (C&N Radio Edit)
06. Russian Lullaby (Dogshit Le Club Mix)
07. Princess Of Egypt (Pinocchio Remix)
08. Here I Go Again (Richi's Extended Version)
09. So Dem A Com (Lori Brune Edit)
10. Hold Your Horses (Hartmann / Langhoff Club Mix)
11. Set The World On Fire (U.K. Biff & Memphis Remix)
Прoдолжительность: 01:06:39

Отчёт ЕАС

Exact Audio Copy V0.99 prebeta 4 from 23. January 2008
Отчёт EAC об извлечении, выполненном 16. мая 2008, 2:56
E-Type / Greatest Remixes, CD2
Дисковод: PLEXTOR DVDR   PX-712A   Adapter: 4  ID: 0
Режим чтения                 : Достоверность
Использование точного потока : Да
Отключение кэша аудио        : Да
Использование указателей C2  : Нет
Коррекция смещения при чтении                     : 30
Способность читать области Lead-in и Lead-out     : Нет
Заполнение пропущенных сэмплов тишиной            : Да
Удаление блоков с тишиной в начале и конце        : Нет
При вычислениях CRC использовались нулевые сэмплы : Да
Интерфейс                                         : Встроенный Win32-интерфейс для Win NT/2000
Выходной формат : Внутренние WAV-операции
Формат сэмплов  : 44.100 Гц; 16 бит; стерео
TOC извлечённого CD
     Трек |   Старт  | Длительность | Начальный сектор | Конечный сектор
    ---------------------------------------------------------------------
       1  |  0:00.00 |    6:49.73   |           0      |      30747
       2  |  6:49.73 |    3:39.61   |       30748      |      47233
       3  | 10:29.59 |    3:38.25   |       47234      |      63608
       4  | 14:08.09 |    5:46.11   |       63609      |      89569
       5  | 19:54.20 |    3:35.54   |       89570      |     105748
       6  | 23:29.74 |    5:59.67   |      105749      |     132740
       7  | 29:29.66 |    5:42.00   |      132741      |     158390
       8  | 35:11.66 |    7:04.61   |      158391      |     190251
       9  | 42:16.52 |    3:53.03   |      190252      |     207729
      10  | 46:09.55 |    7:47.09   |      207730      |     242763
      11  | 53:56.64 |   12:47.53   |      242764      |     300341
Характеристики диапазона извлечения и сообщения об ошибках
Выбранный диапазон
     Имя файла D:\E-Type - Greatest Remixes, CD2.wav
     Пиковый уровень 99.4 %
     Качество диапазона 100,0%
     CRC копии 0D6CD0B2
     Копирование завершено
Ошибок не произошло
Конец отчёта

Отчёт Audiochecker

AUDIOCHECKER v2.0 beta (build 457) - by Dester - [url=mailto:[email protected]][email protected][/url]
~~~~~~~~~~~~~~~~~~~~~~~~~~~~~~~~~~
Started at: вторник, 07. 12. 2010. - 10:40.18
11 files found
01 -===- D:\TORRENT\E-Type - Greatest Hits & Greatest Remixes - 1999 [NNM-club]\Greatest Remixes CD2\01 - This Is The Way (Waterdreamix).flac
  Extracted successfully
  Conclusion: this track is CDDA with probability 100%
  Tempfile successfully deleted.
02 -===- D:\TORRENT\E-Type - Greatest Hits & Greatest Remixes - 1999 [NNM-club]\Greatest Remixes CD2\02 - Back In The Loop (Antiloop Snap Out Of It Mix).flac
  Extracted successfully
  Conclusion: this track is CDDA with probability 100%
  Tempfile successfully deleted.
03 -===- D:\TORRENT\E-Type - Greatest Hits & Greatest Remixes - 1999 [NNM-club]\Greatest Remixes CD2\03 - I Just Wanna Be With You (Andre's Boogie Buster Short Mix).flac
  Extracted successfully
  Conclusion: this track is CDDA with probability 100%
  Tempfile successfully deleted.
04 -===- D:\TORRENT\E-Type - Greatest Hits & Greatest Remixes - 1999 [NNM-club]\Greatest Remixes CD2\04 - Calling Your Name (Antiloop Garage Club Mix).flac
  Extracted successfully
  Conclusion: this track is CDDA with probability 100%
  Tempfile successfully deleted.
05 -===- D:\TORRENT\E-Type - Greatest Hits & Greatest Remixes - 1999 [NNM-club]\Greatest Remixes CD2\05 - Angels Crying (C&N Radio Edit).flac
  Extracted successfully
  Conclusion: this track is CDDA with probability 100%
  Tempfile successfully deleted.
06 -===- D:\TORRENT\E-Type - Greatest Hits & Greatest Remixes - 1999 [NNM-club]\Greatest Remixes CD2\06 - Russian Lullaby (Dogshit Le Club Mix).flac
  Extracted successfully
  Conclusion: this track is CDDA with probability 100%
  Tempfile successfully deleted.
07 -===- D:\TORRENT\E-Type - Greatest Hits & Greatest Remixes - 1999 [NNM-club]\Greatest Remixes CD2\07 - Princess Of Egypt (Pinocchio Remix).flac
  Extracted successfully
  Conclusion: this track is CDDA with probability 99%
  Tempfile successfully deleted.
08 -===- D:\TORRENT\E-Type - Greatest Hits & Greatest Remixes - 1999 [NNM-club]\Greatest Remixes CD2\08 - Here I Go Again (Richi's Extended Version).flac
  Extracted successfully
  Conclusion: this track is CDDA with probability 100%
  Tempfile successfully deleted.
09 -===- D:\TORRENT\E-Type - Greatest Hits & Greatest Remixes - 1999 [NNM-club]\Greatest Remixes CD2\09 - So Dem A Com (Lori Brune Edit).flac
  Extracted successfully
  Conclusion: this track is CDDA with probability 100%
  Tempfile successfully deleted.
10 -===- D:\TORRENT\E-Type - Greatest Hits & Greatest Remixes - 1999 [NNM-club]\Greatest Remixes CD2\10 - Hold Your Horses (Hartmann - Langhoff Club Mix).flac
  Extracted successfully
  Conclusion: this track is CDDA with probability 100%
  Tempfile successfully deleted.
11 -===- D:\TORRENT\E-Type - Greatest Hits & Greatest Remixes - 1999 [NNM-club]\Greatest Remixes CD2\11 - Set The World On Fire (U.K. Biff & Memphis Remix).flac
  Extracted successfully
  Conclusion: this track is CDDA with probability 100%
  Tempfile successfully deleted.
Finished at: вторник, 07. 12. 2010. - 10:50.24 (operation time: 0:10.06)
-E-Type (Bo Martin Erik Eriksson) - Профессионально занимается музыкой уже давно, но его успешная сольная карьера началась в 1994 году.
Синглы "Set The World On Fire" и "This Is The Way" покоряют шведские чарты и мгновенно становятся "Золотыми". Успехи в Швеции в 1994 отмечены тремя наградами на Swedish Dance Music Awards как «Лучший дебют», «Лучший исполнитель», «Лучшая песня».
На фоне такого успеха на родине Мартин Эриксон, со своей группой из 9 музыкантов, танцоров и аранжировщиков, устремляется завоёвывать мир.
-
Яндекс.Метрика
Рейтинг@Mail.ru