[ Сегодня на трекере фрилич! Идет свободное скачивание без начисления Download ]

Cyndi Lauper - She's So Unusual (1983) /2000, Epic/ [FLAC|Lossless]<Pop-Rock / Synth-pop>

 

Создавать темы 17-Дек-2014 11:56

-Cyndi Lauper - She's So Unusual (1983)- Год:1983
Издание: Epic / Legacy 499943 2
Жанр: Pop-Rock / Synth-pop
Продолжительность: 00:53:15
Источник: Интернет
Кодек: FLAC
Тип рипа: Image+.cue
Битрейт: Lossless
Трек лист:
01. Money Changes Everything (5:06)
02. Girls Just Want To Have Fun (3:58)
03. When You Were Mine (5:07)
04. Time After Time (4:01)
05. She Bop (3:49)
06. All Through The Night (4:33)
07. Witness (3:40)
08. I'll Kiss You (4:13)
09. He's So Unusual (0:46)
10. Yeah Yeah (3:16)
BonusTracks:
11. Money Changes Everything (Live) (4:36)
12. She Bop (Live) (5:20)
13. All Through The Night (Live) (4:48)

Содержание индексной карты&#58;

REM GENRE Pop
REM DATE 1983
REM DISCID B50C7A0D
REM COMMENT "ExactAudioCopy v0.99pb4"
PERFORMER "Cyndi Lauper"
TITLE "She's So Unusual"
FILE "Cyndi Lauper - She's So Unusual.flac" WAVE
  TRACK 01 AUDIO
    TITLE "Money Changes Everything"
    PERFORMER "Cyndi Lauper"
    INDEX 01 00:00:00
  TRACK 02 AUDIO
    TITLE "Girls Just Want To Have Fun"
    PERFORMER "Cyndi Lauper"
    INDEX 01 05:06:05
  TRACK 03 AUDIO
    TITLE "When You Were Mine"
    PERFORMER "Cyndi Lauper"
    INDEX 01 09:04:25
  TRACK 04 AUDIO
    TITLE "Time After Time"
    PERFORMER "Cyndi Lauper"
    INDEX 01 14:11:02
  TRACK 05 AUDIO
    TITLE "She Bop"
    PERFORMER "Cyndi Lauper"
    INDEX 01 18:12:32
  TRACK 06 AUDIO
    TITLE "All Through The Night"
    PERFORMER "Cyndi Lauper"
    INDEX 01 22:01:57
  TRACK 07 AUDIO
    TITLE "Witness"
    PERFORMER "Cyndi Lauper"
    INDEX 00 26:34:36
    INDEX 01 26:34:69
  TRACK 08 AUDIO
    TITLE "I'll Kiss You"
    PERFORMER "Cyndi Lauper"
    INDEX 01 30:15:19
  TRACK 09 AUDIO
    TITLE "He's So Unusual"
    PERFORMER "Cyndi Lauper"
    INDEX 00 34:27:48
    INDEX 01 34:27:67
  TRACK 10 AUDIO
    TITLE "Yeah Yeah"
    PERFORMER "Cyndi Lauper"
    INDEX 00 35:13:56
    INDEX 01 35:13:62
  TRACK 11 AUDIO
    TITLE "Money Changes Everything (Live)"
    PERFORMER "Cyndi Lauper"
    INDEX 00 38:30:07
    INDEX 01 38:30:19
  TRACK 12 AUDIO
    TITLE "She Bop (Live)"
    PERFORMER "Cyndi Lauper"
    INDEX 00 43:05:41
    INDEX 01 43:06:12
  TRACK 13 AUDIO
    TITLE "All Through The Night (Live)"
    PERFORMER "Cyndi Lauper"
    INDEX 01 48:26:42

Отчёт EAC&#58;

Exact Audio Copy V0.99 prebeta 4 from 23. January 2008
EAC extraction logfile from 30. May 2009, 20:51
Cyndi Lauper / She's So Unusual
Used drive  : SO0158T REZ192S   Adapter: 3  ID: 0
Read mode               : Secure
Utilize accurate stream : Yes
Defeat audio cache      : Yes
Make use of C2 pointers : No
Read offset correction                      : 0
Overread into Lead-In and Lead-Out          : No
Fill up missing offset samples with silence : Yes
Delete leading and trailing silent blocks   : No
Null samples used in CRC calculations       : No
Used interface                              : Installed external ASPI interface
Used output format              : User Defined Encoder
Selected bitrate                : 1024 kBit/s
Quality                         : High
Add ID3 tag                     : No
Command line compressor         : C:\Program Files\Exact Audio Copy\FLAC\FLAC.EXE
Additional command line options : -6 -V -T "ARTIST=%a" -T "TITLE=%t" -T "ALBUM=%g" -T "DATE=%y" -T "TRACKNUMBER=%n" -T "GENRE=%m" -T "COMMENT=%e" %s -o %d
TOC of the extracted CD
     Track |   Start  |  Length  | Start sector | End sector
    ---------------------------------------------------------
        1  |  0:00.00 |  5:06.05 |         0    |    22954
        2  |  5:06.05 |  3:58.20 |     22955    |    40824
        3  |  9:04.25 |  5:06.52 |     40825    |    63826
        4  | 14:11.02 |  4:01.30 |     63827    |    81931
        5  | 18:12.32 |  3:49.25 |     81932    |    99131
        6  | 22:01.57 |  4:33.12 |     99132    |   119618
        7  | 26:34.69 |  3:40.25 |    119619    |   136143
        8  | 30:15.19 |  4:12.48 |    136144    |   155091
        9  | 34:27.67 |  0:45.70 |    155092    |   158536
       10  | 35:13.62 |  3:16.32 |    158537    |   173268
       11  | 38:30.19 |  4:35.68 |    173269    |   193961
       12  | 43:06.12 |  5:20.30 |    193962    |   217991
       13  | 48:26.42 |  4:48.22 |    217992    |   239613
Range status and errors
Selected range
     Filename L:\Upload\Cyndi Lauper - She's So Unusual\Cyndi Lauper - She's So Unusual.wav
     Peak level 100.0 %
     Range quality 100.0 %
     Copy CRC A8E1B1AF
     Copy OK
No errors occurred
AccurateRip summary
Track  1  accurately ripped (confidence 1)  [37809B47]
Track  2  accurately ripped (confidence 1)  [B7BD1E71]
Track  3  accurately ripped (confidence 1)  [BED9BC5B]
Track  4  accurately ripped (confidence 1)  [BFC18DDD]
Track  5  accurately ripped (confidence 1)  [9717F9FE]
Track  6  accurately ripped (confidence 1)  [0809E336]
Track  7  accurately ripped (confidence 1)  [E803D2D4]
Track  8  accurately ripped (confidence 1)  [E005FBB0]
Track  9  accurately ripped (confidence 1)  [7139C720]
Track 10  accurately ripped (confidence 1)  [950418F9]
Track 11  accurately ripped (confidence 1)  [C827D12E]
Track 12  accurately ripped (confidence 1)  [1B7A22C0]
Track 13  accurately ripped (confidence 1)  [7D535F64]
All tracks accurately ripped
End of status report

Отчёт auCDtect Task Manager&#58;

-----------------------
DON'T MODIFY THIS FILE
-----------------------
PERFORMER: auCDtect Task Manager, ver. 1.5.1RC4 build 1.5.1.5
Copyright (c) 2008-2010 y-soft. All rights reserved
http://y-soft.org
ANALYZER: auCDtect: CD records authenticity detector, version 0.8.2
Copyright (c) 2004 Oleg Berngardt. All rights reserved.
Copyright (c) 2004 Alexander Djourik. All rights reserved.
FILE: Cyndi Lauper - She's So Unusual.flac
  Size: 379299031 Hash: E7144D3F6852629EC3DF1B3E435C05F4 Accuracy: -m0
  Conclusion: CDDA 100%
  Signature: 7A136ABBE301AD943C5CCCC25E6C3D2E7106DEEE
Спасибо mohten
Время раздачи: с 01:00 до 19:00 МСК
Яндекс.Метрика
Рейтинг@Mail.ru