[ Сегодня на трекере фрилич! Идет свободное скачивание без начисления Download ]

Imperio - 2 альбома (1995-1996) [FLAC|Lossless]<Eurodance, Dreamdance>

 

Создавать темы 17-Дек-2014 11:56

-Imperio - 2 Albums (1995-1996)- Год: 1995-1996
Жанр: Eurodance, Dreamdance
Продолжительность: 01:36:12
Кодек: FLAC
Битрейт: Lossless
Тип раздачи: image+.cue
Наличие сканов в содержимом раздачи: да-1995 - Veni Vidi Vici
Лейбл: EAMS
Каталог: EAMS 3500-2
Прoдолжительность: 00:42:12
Треклист:
01. Introductio
02. Nostra Culpa
03. Veni Vidi Vici
04. Exodus
05. Agnus Dei (Conquest Of Space)
06. Amor Infinitus (Don't Fade Away)
07. Phantasia (Fantasy Beats Reality)
08. Octopus
09. Luna Noctis (A Promise Of Eternity)
10. Manuela & Michael ID
11. Quo Vadis
12. Finis
13. Samples Of Imperio

Отчёт ЕАС&#58;

Exact Audio Copy V0.99 prebeta 4 from 23. January 2008
Отчёт EAC об извлечении, выполненном 17. июня 2009, 21:31
Imperio / Veni Vidi Vici
Дисковод: HL-DT-STDVDRAM GSA-H10N   Adapter: 0  ID: 0
Режим чтения                 : Достоверность
Использование точного потока : Да
Отключение кэша аудио        : Да
Использование указателей C2  : Нет
Коррекция смещения при чтении                     : 667
Способность читать области Lead-in и Lead-out     : Нет
Заполнение пропущенных сэмплов тишиной            : Да
Удаление блоков с тишиной в начале и конце        : Нет
При вычислениях CRC использовались нулевые сэмплы : Да
Интерфейс                                         : Встроенный Win32-интерфейс для Win NT/2000
Выходной формат : Внутренние WAV-операции
Формат сэмплов  : 44.100 Гц; 16 бит; стерео
TOC извлечённого CD
     Трек |   Старт  | Длительность | Начальный сектор | Конечный сектор
    ---------------------------------------------------------------------
       1  |  0:00.32 |    1:28.68   |          32      |       6699
       2  |  1:29.25 |    4:09.15   |        6700      |      25389
       3  |  5:38.40 |    4:44.42   |       25390      |      46731
       4  | 10:23.07 |    4:02.00   |       46732      |      64881
       5  | 14:25.07 |    1:01.63   |       64882      |      69519
       6  | 15:26.70 |    4:55.12   |       69520      |      91656
       7  | 20:22.07 |    3:51.23   |       91657      |     109004
       8  | 24:13.30 |    4:40.17   |      109005      |     130021
       9  | 28:53.47 |    4:14.60   |      130022      |     149131
      10  | 33:08.32 |    0:18.40   |      149132      |     150521
      11  | 33:26.72 |    5:41.48   |      150522      |     176144
      12  | 39:08.45 |    1:04.47   |      176145      |     180991
      13  | 40:13.17 |    1:59.15   |      180992      |     189931
Характеристики диапазона извлечения и сообщения об ошибках
Выбранный диапазон
     Имя файла C:\Documents and Settings\Администратор\Мои документы\Imperio - Veni Vidi Vici (Album) (1995) (lossless-DENnv)\Imperio - Veni Vidi Vici.wav
     Пиковый уровень 99.0 %
     Качество диапазона 100.0 %
     CRC теста 42DCD4CF
     CRC копии 42DCD4CF
     Копирование... OK
Ошибок не произошло
Конец отчёта

Отчёт auCDtectTaskManager&#58;

-----------------------
DON'T MODIFY THIS FILE
-----------------------
PERFORMER: auCDtect Task Manager, ver. 1.5.1RC4 build 1.5.1.5
Copyright (c) 2008-2010 y-soft. All rights reserved
http://y-soft.org
ANALYZER: auCDtect: CD records authenticity detector, version 0.8.2
Copyright (c) 2004 Oleg Berngardt. All rights reserved.
Copyright (c) 2004 Alexander Djourik. All rights reserved.
FILE: Imperio - Veni Vidi Vici.flac
  Size: 313013958 Hash: 0E38C9D29A5A4A1EF5470D99D9B546C0 Accuracy: -m0
  Conclusion: CDDA 100%
  Signature: E70E566DC019101D027B2817C038D026C22C1396
-

1996 - Return To Paradise

Лейбл: EAMS
Каталог: EAMS 3900-2
Прoдолжительность: 00:34:00
Треклист:
01. Intro
02. Atlantis
03. Wings Of Love
04. Secrets Of Love
05. Cyberdreams
06. Kill Me (With Your Love)
07. There Is A Dream (Part I)
08. The Night Of Magic
09. Brainstorm
10. There Is A Dream (Part II)
11. Never Go Away
12. Return To Paradise

Отчёт ЕАС&#58;

Exact Audio Copy V0.99 prebeta 4 from 23. January 2008
Отчёт EAC об извлечении, выполненном 17. июня 2009, 21:49
Imperio / Return To Paradise
Дисковод: HL-DT-STDVDRAM GSA-H10N   Adapter: 0  ID: 0
Режим чтения                 : Достоверность
Использование точного потока : Да
Отключение кэша аудио        : Да
Использование указателей C2  : Нет
Коррекция смещения при чтении                     : 667
Способность читать области Lead-in и Lead-out     : Нет
Заполнение пропущенных сэмплов тишиной            : Да
Удаление блоков с тишиной в начале и конце        : Нет
При вычислениях CRC использовались нулевые сэмплы : Да
Интерфейс                                         : Встроенный Win32-интерфейс для Win NT/2000
Выходной формат : Внутренние WAV-операции
Формат сэмплов  : 44.100 Гц; 16 бит; стерео
TOC извлечённого CD
     Трек |   Старт  | Длительность | Начальный сектор | Конечный сектор
    ---------------------------------------------------------------------
       1  |  0:00.00 |    1:16.10   |           0      |       5709
       2  |  1:16.10 |    3:54.65   |        5710      |      23324
       3  |  5:11.00 |    4:31.32   |       23325      |      43681
       4  |  9:42.32 |    6:07.13   |       43682      |      71219
       5  | 15:49.45 |    4:50.37   |       71220      |      93006
       6  | 20:40.07 |    4:10.30   |       93007      |     111786
       7  | 24:50.37 |    6:17.15   |      111787      |     140076
       8  | 31:07.52 |    4:38.65   |      140077      |     160991
       9  | 35:46.42 |    4:00.00   |      160992      |     178991
      10  | 39:46.42 |    5:11.70   |      178992      |     202386
      11  | 44:58.37 |    4:27.13   |      202387      |     222424
      12  | 49:25.50 |    4:35.10   |      222425      |     243059
      13  | 56:32.60 |   16:39.13   |      254460      |     329397
Характеристики диапазона извлечения и сообщения об ошибках
Выбранный диапазон
     Имя файла C:\Documents and Settings\Администратор\Мои документы\Imperio - Return To Paradise (Album) (1996) (lossless-DENnv)\Imperio - Return To Paradise.wav
     Пиковый уровень 99.9 %
     Качество диапазона 100.0 %
     CRC теста 22F30626
     CRC копии 22F30626
     Копирование... OK
Ошибок не произошло
Конец отчёта

Отчёт auCDtectTaskManager&#58;

-----------------------
DON'T MODIFY THIS FILE
-----------------------
PERFORMER: auCDtect Task Manager, ver. 1.5.1RC4 build 1.5.1.5
Copyright (c) 2008-2010 y-soft. All rights reserved
http://y-soft.org
ANALYZER: auCDtect: CD records authenticity detector, version 0.8.2
Copyright (c) 2004 Oleg Berngardt. All rights reserved.
Copyright (c) 2004 Alexander Djourik. All rights reserved.
FILE: Imperio - Return To Paradise.flac
  Size: 389551248 Hash: 9371BFFBE78A9CA64A585D8063BE51DD Accuracy: -m0
  Conclusion: CDDA 100%
  Signature: F88F215AADEA63E89AE940E04360F7208C313F60
-Imperio - проект австрийского продюсера Норберта Райхарта (Norbert Reichart), солисты Мануэла Рэй (Manuela Ray) и Майкл Харрис (Michael Harris).
Первый же сингл "Veni Vidi Vici" покорил хит-парады не только Австрии, но и многих Европейских стран. Затем последовали "Quo Vadis", "Nostra Culpa", "Amor Infinitus" и в 1995-м году вышел полноразмерный альбом "Veni Vidi Vici".
Альбом был весьма успешен, но в 1996-м евроденс стал сдавать свои позиции в пользу дримденса и второй альбом коллектива "Return To Paradise" имел явный крен в сторону этого стиля.
В 1997-м вышел сингл "Wings Of Love", но третий альбом так и не появился, Норберт занялся другими проектами. В 2001-м году была попытка реанимировать Imperio, даже был набран новый состав, но дальше этого дело так и не пошло.
-
Яндекс.Метрика
Рейтинг@Mail.ru