[ Сегодня на трекере фрилич! Идет свободное скачивание без начисления Download ]

Technotronic - Pump Up the Jam (1989) [WavPack|Lossless]<Pop, EuroDance>

 

Создавать темы 17-Дек-2014 11:56

-Technotronic - Pump Up the Jam (1989)- Год: 1989
Жанр: Pop, EuroDance
Продолжительность: 00:57:40
Кодек: WavPack
Битрейт: Lossless
Издатель (лейбл): SBK Records
Номер по каталогу: CDP-93422
Наличие сканов в содержимом раздачи: да
Треклист:
01. Pump Up the Jam (5:24)
02. Get Up (Before the Night is Over) (5:40)
03. Tough (4:29)
04. Take it Slow (5:08)
05. Come On (3:14)
06. This Beat is Technotronic (5:30)
07. Move This (5:23)
08. Come Back (4:56)
09. Rockin' Over the Beat (5:50)
10. Raw (4:50)
11. Wave (4:20)
12. Bluestring (2:56)

Отчёт ЕАС&#58;

Exact Audio Copy V1.0 beta 1 from 15. November 2010
EAC extraction logfile from 18. May 2011, 10:15
Technotronic / Pump Up the Jam
Used drive  : TSSTcorpDVD+-RW TS-H653B   Adapter: 0  ID: 1
Read mode               : Secure
Utilize accurate stream : Yes
Defeat audio cache      : Yes
Make use of C2 pointers : No
Read offset correction                      : 6
Overread into Lead-In and Lead-Out          : No
Fill up missing offset samples with silence : Yes
Delete leading and trailing silent blocks   : No
Null samples used in CRC calculations       : Yes
Used interface                              : Native Win32 interface for Win NT & 2000
Gap handling                                : Appended to previous track
Used output format              : User Defined Encoder
Selected bitrate                : 768 kBit/s
Quality                         : High
Add ID3 tag                     : No
Command line compressor         : C:\Program Files\Exact Audio Copy\FLAC\FLAC.EXE
Additional command line options : -8 -V -T "ARTIST=%a" -T "TITLE=%t" -T "ALBUM=%g" -T "DATE=%y" -T "TRACKNUMBER=%n" -T "TOTALTRACKS=%x" -T "GENRE=%m" -T "ALBUMARTIST=%v" -T "ALBUM ARTIST=%v" -T "COMMENT=EAC Secure Mode, Test & Copy, AccurateRip, FLAC -8" %s
TOC of the extracted CD
     Track |   Start  |  Length  | Start sector | End sector
    ---------------------------------------------------------
        1  |  0:00.00 |  5:24.37 |         0    |    24336
        2  |  5:24.37 |  5:39.70 |     24337    |    49831
        3  | 11:04.32 |  4:28.50 |     49832    |    69981
        4  | 15:33.07 |  5:08.15 |     69982    |    93096
        5  | 20:41.22 |  3:14.13 |     93097    |   107659
        6  | 23:55.35 |  5:30.02 |    107660    |   132411
        7  | 29:25.37 |  5:23.10 |    132412    |   156646
        8  | 34:48.47 |  4:55.68 |    156647    |   178839
        9  | 39:44.40 |  5:50.07 |    178840    |   205096
       10  | 45:34.47 |  4:50.03 |    205097    |   226849
       11  | 50:24.50 |  4:19.70 |    226850    |   246344
       12  | 54:44.45 |  2:55.42 |    246345    |   259511
Track  1
     Filename C:\extract\01 - Pump Up the Jam.wav
     Pre-gap length  0:00:02.00
     Peak level 98.5 %
     Extraction speed 4.7 X
     Track quality 100.0 %
     Test CRC 6E0F00C9
     Copy CRC 6E0F00C9
     Accurately ripped (confidence 3)  [42FFCB62]
     Copy OK
Track  2
     Filename C:\extract\02 - Get Up (Before the Night is Over).wav
     Pre-gap length  0:00:01.65
     Peak level 83.7 %
     Extraction speed 5.4 X
     Track quality 100.0 %
     Test CRC 86B85BC8
     Copy CRC 86B85BC8
     Accurately ripped (confidence 3)  [0C112ED8]
     Copy OK
Track  3
     Filename C:\extract\03 - Tough.wav
     Pre-gap length  0:00:01.52
     Peak level 73.0 %
     Extraction speed 5.7 X
     Track quality 100.0 %
     Test CRC 33661CA1
     Copy CRC 33661CA1
     Accurately ripped (confidence 3)  [123E16FB]
     Copy OK
Track  4
     Filename C:\extract\04 - Take it Slow.wav
     Pre-gap length  0:00:02.27
     Peak level 98.6 %
     Extraction speed 6.3 X
     Track quality 100.0 %
     Test CRC E293C3DF
     Copy CRC E293C3DF
     Accurately ripped (confidence 3)  [4480D071]
     Copy OK
Track  5
     Filename C:\extract\05 - Come On.wav
     Pre-gap length  0:00:02.25
     Peak level 85.8 %
     Extraction speed 6.2 X
     Track quality 100.0 %
     Test CRC 63978308
     Copy CRC 63978308
     Accurately ripped (confidence 3)  [5A3385BE]
     Copy OK
Track  6
     Filename C:\extract\06 - This Beat is Technotronic.wav
     Pre-gap length  0:00:02.03
     Peak level 68.0 %
     Extraction speed 7.1 X
     Track quality 100.0 %
     Test CRC 3DD89D92
     Copy CRC 3DD89D92
     Accurately ripped (confidence 3)  [EBF5A33C]
     Copy OK
Track  7
     Filename C:\extract\07 - Move This.wav
     Pre-gap length  0:00:01.47
     Peak level 99.0 %
     Extraction speed 7.5 X
     Track quality 100.0 %
     Test CRC 287D4980
     Copy CRC 287D4980
     Accurately ripped (confidence 3)  [F622E71C]
     Copy OK
Track  8
     Filename C:\extract\08 - Come Back.wav
     Pre-gap length  0:00:01.32
     Peak level 69.3 %
     Extraction speed 7.7 X
     Track quality 100.0 %
     Test CRC 72CCB3E3
     Copy CRC 72CCB3E3
     Accurately ripped (confidence 3)  [584094E4]
     Copy OK
Track  9
     Filename C:\extract\09 - Rockin' Over the Beat.wav
     Pre-gap length  0:00:00.73
     Peak level 94.1 %
     Extraction speed 8.3 X
     Track quality 100.0 %
     Test CRC 234E645A
     Copy CRC 234E645A
     Accurately ripped (confidence 3)  [0FA6A83B]
     Copy OK
Track 10
     Filename C:\extract\10 - Raw.wav
     Pre-gap length  0:00:01.32
     Peak level 96.9 %
     Extraction speed 8.5 X
     Track quality 100.0 %
     Test CRC 68AF73AB
     Copy CRC 68AF73AB
     Accurately ripped (confidence 3)  [8FD35B60]
     Copy OK
Track 11
     Filename C:\extract\11 - Wave.wav
     Pre-gap length  0:00:01.50
     Peak level 95.3 %
     Extraction speed 8.6 X
     Track quality 100.0 %
     Test CRC 46389FF9
     Copy CRC 46389FF9
     Accurately ripped (confidence 3)  [16ED3945]
     Copy OK
Track 12
     Filename C:\extract\12 - Bluestring.wav
     Pre-gap length  0:00:01.40
     Peak level 73.3 %
     Extraction speed 8.3 X
     Track quality 100.0 %
     Test CRC A33074A5
     Copy CRC A33074A5
     Accurately ripped (confidence 3)  [FBA5930D]
     Copy OK
All tracks accurately ripped
No errors occurred
End of status report
==== Log checksum BB0B1410B92E8BE09E4C1B0DC49F74713A18C1CA75BBD485F9C819DBCCB0C55A ====

Отчёт auCDtect Task manager&#58;

-----------------------
DON'T MODIFY THIS FILE
-----------------------
PERFORMER: auCDtect Task Manager, ver. 1.5.1RC3 build 1.5.1.4
Copyright (c) 2008-2010 y-soft. All rights reserved
http://y-soft.org
ANALYZER: auCDtect: CD records authenticity detector, version 0.8.2
Copyright (c) 2004 Oleg Berngardt. All rights reserved.
Copyright (c) 2004 Alexander Djourik. All rights reserved.
FILE: Technotronic - 1989 - Pump Up the Jam.wv
  Size: 373498231 Hash: AD44E9230A14EE75600D8A35D2F349B0 Accuracy: -m0
  Conclusion: CDDA 100%
  Signature: FF28B618C08A83313B3A6C477A53E97DAE0DD2AC

Содержание индексной карты (.CUE&#41;

REM GENRE "Electronic"
REM DATE 1989
REM DISCID AC0D840C
REM COMMENT "ExactAudioCopy v1.0b1"
REM ACCURATERIPID 001ab653-00f80930-ac0d840c
PERFORMER "Technotronic"
TITLE "Pump Up the Jam"
FILE "Technotronic - 1989 - Pump Up the Jam.wv" WAVE
  TRACK 01 AUDIO
    TITLE "Pump Up the Jam"
    PERFORMER "Technotronic"
    INDEX 01 00:00:00
  TRACK 02 AUDIO
    TITLE "Get Up (Before the Night is Over)"
    PERFORMER "Technotronic"
    INDEX 00 05:22:47
    INDEX 01 05:24:37
  TRACK 03 AUDIO
    TITLE "Tough"
    PERFORMER "Technotronic"
    INDEX 00 11:02:55
    INDEX 01 11:04:32
  TRACK 04 AUDIO
    TITLE "Take it Slow"
    PERFORMER "Technotronic"
    INDEX 00 15:30:55
    INDEX 01 15:33:07
  TRACK 05 AUDIO
    TITLE "Come On"
    PERFORMER "Technotronic"
    INDEX 00 20:38:72
    INDEX 01 20:41:22
  TRACK 06 AUDIO
    TITLE "This Beat is Technotronic"
    PERFORMER "Technotronic"
    INDEX 00 23:53:32
    INDEX 01 23:55:35
  TRACK 07 AUDIO
    TITLE "Move This"
    PERFORMER "Technotronic"
    INDEX 00 29:23:65
    INDEX 01 29:25:37
  TRACK 08 AUDIO
    TITLE "Come Back"
    PERFORMER "Technotronic"
    INDEX 00 34:47:15
    INDEX 01 34:48:47
  TRACK 09 AUDIO
    TITLE "Rockin' Over the Beat"
    PERFORMER "Technotronic"
    INDEX 00 39:43:42
    INDEX 01 39:44:40
  TRACK 10 AUDIO
    TITLE "Raw"
    PERFORMER "Technotronic"
    INDEX 00 45:33:15
    INDEX 01 45:34:47
  TRACK 11 AUDIO
    TITLE "Wave"
    PERFORMER "Technotronic"
    INDEX 00 50:23:00
    INDEX 01 50:24:50
  TRACK 12 AUDIO
    TITLE "Bluestring"
    PERFORMER "Technotronic"
    INDEX 00 54:43:05
    INDEX 01 54:44:45
-
Яндекс.Метрика
Рейтинг@Mail.ru