[ Сегодня на трекере фрилич! Идет свободное скачивание без начисления Download ]

VA - Созвездие Хитов. Turkish Hits, Vol. 1 (2006) [FLAC|Lossless]<Euro House>

 

Создавать темы 17-Дек-2014 11:56

-VA - Созвездие Хитов. Turkish Hits, Vol. 1- Год: 2006
Жанр: Euro House
Кодек: FLAC
Битрейт: Lossless
Продолжительность: 01:09:28
Трек лист:
1 Tarkan - Du Du 4:34
2 Mustafa Sandal - Isynkar 3:43
3 Serdar Ortac - Canima Minnet 5:02
4 Sertab - Satilik Kalpler Sehri 3:08
5 Burcu Gunes - Ay Sahit 3:58
6 Hande Yener - Acele Etme 5:00
7 Gulsen - Sarisinim 2:59
8 Nalan - Andresi Biliyorsun 4:37
9 Aica - Cekicek Kulaklarini 3:59
10 Nazan Oncel - Hay Hay 3:21
11 Emrah - Yakala 4:08
12 Serdar Ortac - Okyanus 4:11
13 Tugba Ekinci - O Simdi Asker 4:05
14 Dogus - Giden Gider 4:41
15 Berksan - Cilek 3:38
16 Ibrahim Tatlises - Tek Tek 4:25
17 Tarkan - Kuzu Kuzu 3:50

Отчёт ЕАС&#58;

Exact Audio Copy V0.99 prebeta 5 from 4. May 2009
EAC extraction logfile from 1. November 2009, 22:40
Various / Созвездие Хитов. Turkish Hits, Vol. 1
Used drive  : ASUS    DRW-1814BLT   Adapter: 1  ID: 0
Read mode               : Secure
Utilize accurate stream : Yes
Defeat audio cache      : Yes
Make use of C2 pointers : No
Read offset correction                      : 6
Overread into Lead-In and Lead-Out          : No
Fill up missing offset samples with silence : Yes
Delete leading and trailing silent blocks   : No
Null samples used in CRC calculations       : Yes
Used interface                              : Installed external ASPI interface
Used output format              : User Defined Encoder
Selected bitrate                : 1024 kBit/s
Quality                         : High
Add ID3 tag                     : No
Command line compressor         : C:\Program Files (x86)\Exact Audio Copy\Flac\flac.exe
Additional command line options : -8 -V %s
TOC of the extracted CD
     Track |   Start  |  Length  | Start sector | End sector
    ---------------------------------------------------------
        1  |  0:00.00 |  4:34.01 |         0    |    20550
        2  |  4:34.01 |  3:43.65 |     20551    |    37340
        3  |  8:17.66 |  5:02.16 |     37341    |    60006
        4  | 13:20.07 |  3:08.02 |     60007    |    74108
        5  | 16:28.09 |  3:58.19 |     74109    |    91977
        6  | 20:26.28 |  5:00.67 |     91978    |   114544
        7  | 25:27.20 |  2:59.52 |    114545    |   128021
        8  | 28:26.72 |  4:37.32 |    128022    |   148828
        9  | 33:04.29 |  3:59.66 |    148829    |   166819
       10  | 37:04.20 |  3:21.59 |    166820    |   181953
       11  | 40:26.04 |  4:08.50 |    181954    |   200603
       12  | 44:34.54 |  4:11.11 |    200604    |   219439
       13  | 48:45.65 |  4:05.61 |    219440    |   237875
       14  | 52:51.51 |  4:41.44 |    237876    |   258994
       15  | 57:33.20 |  3:38.62 |    258995    |   275406
       16  | 61:12.07 |  4:25.61 |    275407    |   295342
       17  | 65:37.68 |  3:50.34 |    295343    |   312626
Range status and errors
Selected range
     Filename G:\!Lossless\VA - Созвездие Хитов. Turkish Hits, Vol. 1\Созвездие Хитов. Turkish Hits, Vol. 1.wav
     Peak level 100.0 %
     Range quality 100.0 %
     Test CRC 45F25372
     Copy CRC 45F25372
     Copy OK
No errors occurred
AccurateRip summary
Track  1  not present in database
Track  2  not present in database
Track  3  not present in database
Track  4  not present in database
Track  5  not present in database
Track  6  not present in database
Track  7  not present in database
Track  8  not present in database
Track  9  not present in database
Track 10  not present in database
Track 11  not present in database
Track 12  not present in database
Track 13  not present in database
Track 14  not present in database
Track 15  not present in database
Track 16  not present in database
Track 17  not present in database
None of the tracks are present in the AccurateRip database
End of status report

Отчёт auCDtect Task manager&#58;

-----------------------
DON'T MODIFY THIS FILE
-----------------------
PERFORMER: auCDtect Task Manager, ver. 1.5.1RC2 build 1.5.1.3
Copyright (c) 2008-2010 y-soft. All rights reserved
http://y-soft.org
ANALYZER: auCDtect: CD records authenticity detector, version 0.8.2
Copyright (c) 2004 Oleg Berngardt. All rights reserved.
Copyright (c) 2004 Alexander Djourik. All rights reserved.
FILE: Созвездие Хитов. Turkish Hits, Vol. 1.flac
  Size: 523866769 Hash: 65881B89A0D97CAC33FE8A56CD88BF57 Accuracy: -m0
  Conclusion: CDDA 100%
  Signature: CB5938A76928D2EC0E599323680128FA2E46397E
-
Яндекс.Метрика
Рейтинг@Mail.ru