Radiorama - Golden Hits (1996) [FLAC|Lossless]<Euro House, Hi NRG, Electronic>

 

Создавать темы 17-Дек-2014 11:56

-Radiorama - Golden Hits (1996)- Жанр: Euro House, Hi NRG, Electronic
Страна-производитель диска: Germany
Год издания диска: 1996
Издатель (лейбл): Koja Records
Номер по каталогу: KJCD-019
Страна: Italy
Аудиокодек: FLAC (*.flac)
Тип рипа: image+.cue
Битрейт аудио: lossless
Продолжительность: 00:47:22
Наличие сканов в содержимом раздачи: да, PNG 600dpi
Треклист:
01. Why Baby Why
02. ABCD - Edit '90
03. 3,4 Gimme More
04. It's A Lonley Wait
05. Aliens 2 (The Nightmare)
06. Little Bird
07. All Night Long
08. Your Love
09. Come Back My Lover
10. Sugar Love
11. Let Me Be
12. Touch Me Now

Отчёт ЕАС&#58;

Exact Audio Copy V0.99 prebeta 5 from 4. May 2009
Отчёт EAC об извлечении, выполненном 27. апреля 2012, 16:20
Radiorama / Golden Hits
Дисковод: PIONEER BD-RW   BDR-206   Adapter: 1  ID: 1
Режим чтения                 : Достоверность
Использование точного потока : Да
Отключение кэша аудио        : Да
Использование указателей C2  : Нет
Коррекция смещения при чтении                     : 667
Способность читать области Lead-in и Lead-out     : Нет
Заполнение пропущенных сэмплов тишиной            : Да
Удаление блоков с тишиной в начале и конце        : Нет
При вычислениях CRC использовались нулевые сэмплы : Да
Интерфейс                                         : Встроенный Win32-интерфейс для Win NT/2000
Выходной формат          : Пользовательский кодировщик
Выбранный битрейт        : 1024 kBit/s
Качество                 : Высокий
Добавление ID3-тэга      : Нет
Утилита сжатия           : C:\Program Files (x86)\Exact Audio Copy\FLAC\FLAC.EXE
Дополнительные параметры : -8 -V -T "ARTIST=%a" -T "TITLE=%t" -T "ALBUM=%g" -T "DATE=%y" -T "TRACKNUMBER=%n" -T "GENRE=%m" -T "COMMENT=%e" %s -o %d
TOC извлечённого CD
     Трек |   Старт  | Длительность | Начальный сектор | Конечный сектор
    ---------------------------------------------------------------------
       1  |  0:00.30 |    5:16.10   |          30      |      23739
       2  |  5:16.40 |    9:17.68   |       23740      |      65582
       3  | 14:34.33 |    4:01.02   |       65583      |      83659
       4  | 18:35.35 |    4:27.74   |       83660      |     103758
       5  | 23:03.34 |    3:14.03   |      103759      |     118311
       6  | 26:17.37 |    5:19.06   |      118312      |     142242
       7  | 31:36.43 |    5:08.01   |      142243      |     165343
       8  | 36:44.44 |    5:27.54   |      165344      |     189922
       9  | 42:12.23 |    6:02.13   |      189923      |     217085
      10  | 48:14.36 |    5:59.01   |      217086      |     244011
      11  | 54:13.37 |    4:33.74   |      244012      |     264560
      12  | 58:47.36 |    4:59.47   |      264561      |     287032
Характеристики диапазона извлечения и сообщения об ошибках
Выбранный диапазон
     Имя файла D:\РАЗДАЧИ!!!!\Подготовка к раздаче!!!\Radiorama - Golden Hits - 1996\Radiorama - Golden Hits.wav
     Пиковый уровень 100.0 %
     Качество диапазона 100.0 %
     CRC теста E5A5B4B3
     CRC копии E5A5B4B3
     Копирование... OK
Ошибок не произошло
Конец отчёта

Отчёт auCDtect Task manager&#58;

-----------------------
DON'T MODIFY THIS FILE
-----------------------
PERFORMER: auCDtect Task Manager, ver. 1.5.1RC6 build 1.5.1.7
Copyright (c) 2008-2010 y-soft. All rights reserved
http://y-soft.org
ANALYZER: auCDtect: CD records authenticity detector, version 0.8.2
Copyright (c) 2004 Oleg Berngardt. All rights reserved.
Copyright (c) 2004 Alexander Djourik. All rights reserved.
FILE: Radiorama - Golden Hits.flac
  Size: 467757369 Hash: 51261107A225CED6DF961F0E887EE9BC Accuracy: -m0
  Conclusion: CDDA 100%
  Signature: 3C499C13CDD9E234C0C4EF4153524C972A176B0A

Содержание индексной карты (.CUE&#41;&#58;

REM GENRE Euro-House
REM DATE 1996
REM DISCID C10EF30C
REM COMMENT "ExactAudioCopy v0.99pb5"
PERFORMER "Radiorama"
TITLE "Golden Hits"
FILE "Radiorama - Golden Hits.flac" WAVE
  TRACK 01 AUDIO
    TITLE "Why Baby Why"
    PERFORMER "Radiorama"
    INDEX 00 00:00:00
    INDEX 01 00:00:30
  TRACK 02 AUDIO
    TITLE "ABCD - Edit '90"
    PERFORMER "Radiorama"
    INDEX 00 05:16:39
    INDEX 01 05:16:40
  TRACK 03 AUDIO
    TITLE "3.4 Gimme More"
    PERFORMER "Radiorama"
    INDEX 00 14:34:32
    INDEX 01 14:34:33
  TRACK 04 AUDIO
    TITLE "It's A Lonely Wait"
    PERFORMER "Radiorama"
    INDEX 00 18:35:34
    INDEX 01 18:35:35
  TRACK 05 AUDIO
    TITLE "Aliens 2 (The Nightmare)"
    PERFORMER "Radiorama"
    INDEX 00 23:03:33
    INDEX 01 23:03:34
  TRACK 06 AUDIO
    TITLE "Little Bird"
    PERFORMER "Radiorama"
    INDEX 00 26:17:36
    INDEX 01 26:17:37
  TRACK 07 AUDIO
    TITLE "All Night Long"
    PERFORMER "Radiorama"
    INDEX 00 31:36:42
    INDEX 01 31:36:43
  TRACK 08 AUDIO
    TITLE "Your Love"
    PERFORMER "Radiorama"
    INDEX 00 36:44:43
    INDEX 01 36:44:44
  TRACK 09 AUDIO
    TITLE "Come Back My Lover"
    PERFORMER "Radiorama"
    INDEX 00 42:12:22
    INDEX 01 42:12:23
  TRACK 10 AUDIO
    TITLE "Sugar Love"
    PERFORMER "Radiorama"
    INDEX 01 48:14:36
  TRACK 11 AUDIO
    TITLE "Let Me Be"
    PERFORMER "Radiorama"
    INDEX 01 54:13:37
  TRACK 12 AUDIO
    TITLE "Touch Me Now"
    PERFORMER "Radiorama"
    INDEX 00 58:47:35
    INDEX 01 58:47:36
-
Яндекс.Метрика
Рейтинг@Mail.ru