VA - Different Shades Of Savage (2011) 2CD [APE|Lossless]<Italo-Disco, Synth-pop, Italodance>

 

Создавать темы 17-Дек-2014 11:56

-VA - Different Shades Of Savage (2CD) (2011)- Год: 2011
Жанр: Italo-Disco, Synth-pop, Italodance
Лэйбл: Klub80 Records [213/214]
Страна: Poland
Формат: 2xCD, Compilation, Remastered
Аудио Кодек: APE
Аудио Битрейт: Lossless
Тип Рипа: Image+.cue+.log
Наличие Сканов: Да, Full HQ
Продолжительность: 02:10:5--CD1
Продолжительность: 01:06:36
Треклист:
01. G.A.N.G. - Incantations (Vocal) :: 09:42
02. Joey Moon - Angelica (Original) :: 06:30
03. Rose - Magic Carillon (Vocal) :: 06:09
04. Tango - Computerized Love (Original) :: 05:16
05. Lena - Run To Me (Extended Version) :: 04:53
06. Frank Raja - Born To Be Alive (Original) :: 06:02
07. Limit Eccitation - In The Dark (Original) :: 05:12
08. Wilson Ferguson - I'm Singing Again (Extended Version) :: 05:47
09. Paula Evans - Ciao (Extended Version) :: 05:10
10. Savage - So Close (Hijack Remix) :: 05:20
11. Raimunda Navarro - Te Amo (Extended Version) :: 07:04-Catalog#: CD1 - 213
©2011 Extravaganza Publishing S.R.L.
2011 Klub80 Records-

Отчёт ЕАС CD1&#58;

Exact Audio Copy V0.99 prebeta 5 from 4. May 2009
Отчёт EAC об извлечении, выполненном 16. июля 2011, 23:36
Various / Different Shades Of Savage
Дисковод: PLEXTOR DVDR   PX-860A   Adapter: 1  ID: 1
Режим чтения                 : Достоверность
Использование точного потока : Да
Отключение кэша аудио        : Да
Использование указателей C2  : Нет
Коррекция смещения при чтении                     : 96
Способность читать области Lead-in и Lead-out     : Нет
Заполнение пропущенных сэмплов тишиной            : Да
Удаление блоков с тишиной в начале и конце        : Нет
При вычислениях CRC использовались нулевые сэмплы : Да
Интерфейс                                         : Встроенный Win32-интерфейс для Win NT/2000
Выходной формат : Внутренние WAV-операции
Формат сэмплов  : 44.100 Гц; 16 бит; стерео
TOC извлечённого CD
     Трек |   Старт  | Длительность | Начальный сектор | Конечный сектор
    ---------------------------------------------------------------------
       1  |  0:00.00 |    9:42.74   |           0      |      43723
       2  |  9:42.74 |    6:30.74   |       43724      |      73047
       3  | 16:13.73 |    6:09.74   |       73048      |     100796
       4  | 22:23.72 |    5:16.74   |      100797      |     124570
       5  | 27:40.71 |    4:53.74   |      124571      |     146619
       6  | 32:34.70 |    6:02.73   |      146620      |     173842
       7  | 38:37.68 |    5:12.74   |      173843      |     197316
       8  | 43:50.67 |    5:47.74   |      197317      |     223415
       9  | 49:38.66 |    5:10.74   |      223416      |     246739
      10  | 54:49.65 |    5:20.74   |      246740      |     270813
      11  | 60:10.64 |    7:04.74   |      270814      |     302687
Характеристики диапазона извлечения и сообщения об ошибках
Выбранный диапазон
     Имя файла C:\Various - Different Shades Of Savage.wav
     Пиковый уровень 99.8 %
     Качество диапазона 100.0 %
     CRC теста DCEA7627
     CRC копии DCEA7627
     Копирование... OK
Ошибок не произошло
AccurateRip: сводка
Трек  1  нет в базе данных
Трек  2  нет в базе данных
Трек  3  нет в базе данных
Трек  4  нет в базе данных
Трек  5  нет в базе данных
Трек  6  нет в базе данных
Трек  7  нет в базе данных
Трек  8  нет в базе данных
Трек  9  нет в базе данных
Трек 10  нет в базе данных
Трек 11  нет в базе данных
Ни одного трека нет в базе AccurateRip
Конец отчёта
-CD2
Пpoдолжительность: 01:03:36
Тpeклист:
01. Taxi - To Miami (Original) :: 06:04
02. Camomilla - Buenas Noches (Original) :: 06:07
03. Stargo - Capsicum (Original) :: 06:18
04. Saxophone - Souvenir (Vocal) :: 06:13
05. Claudio Mingardi - Star (Vocoder Version) :: 06:50
06. Lala - Johnny, Johnny (Vocal Version) :: 04:57
07. West Virginia - Stars On Magic (Italomix) :: 05:39
08. Two For Love - Hold Me (Extended Version) :: 05:07
09. Alexia Cooper - Boy (Extended Remix) :: 05:33
10. Lita Beck - It's All Right (Extended Version) :: 04:55
11. Ice MC - Easy (Extended Revolution Remix) :: 05:43-Catalog#: CD2 - 214
©2011 Extravaganza Publishing S.R.L.
2011 Klub80 Records-

Отчёт ЕАС CD2&#58;

Exact Audio Copy V0.99 prebeta 5 from 4. May 2009
Отчёт EAC об извлечении, выполненном 16. июля 2011, 18:56
Various / Different Shades Of Savage CD2
Дисковод: PLEXTOR DVDR   PX-860A   Adapter: 1  ID: 1
Режим чтения                 : Достоверность
Использование точного потока : Да
Отключение кэша аудио        : Да
Использование указателей C2  : Нет
Коррекция смещения при чтении                     : 96
Способность читать области Lead-in и Lead-out     : Нет
Заполнение пропущенных сэмплов тишиной            : Да
Удаление блоков с тишиной в начале и конце        : Нет
При вычислениях CRC использовались нулевые сэмплы : Да
Интерфейс                                         : Встроенный Win32-интерфейс для Win NT/2000
Выходной формат : Внутренние WAV-операции
Формат сэмплов  : 44.100 Гц; 16 бит; стерео
TOC извлечённого CD
     Трек |   Старт  | Длительность | Начальный сектор | Конечный сектор
    ---------------------------------------------------------------------
       1  |  0:00.00 |    6:04.74   |           0      |      27373
       2  |  6:04.74 |    6:07.74   |       27374      |      54972
       3  | 12:12.73 |    6:18.74   |       54973      |      83396
       4  | 18:31.72 |    6:13.74   |       83397      |     111445
       5  | 24:45.71 |    6:50.66   |      111446      |     142261
       6  | 31:36.62 |    4:57.74   |      142262      |     164610
       7  | 36:34.61 |    5:39.74   |      164611      |     190109
       8  | 42:14.60 |    5:07.74   |      190110      |     213208
       9  | 47:22.59 |    5:33.74   |      213209      |     238257
      10  | 52:56.58 |    4:55.74   |      238258      |     260456
      11  | 57:52.57 |    5:43.74   |      260457      |     286255
Характеристики диапазона извлечения и сообщения об ошибках
Выбранный диапазон
     Имя файла C:\Various - Different Shades Of Savage CD2.wav
     Пиковый уровень 96.6 %
     Качество диапазона 99.9 %
     CRC теста 914FDC35
     CRC копии 914FDC35
     Копирование... OK
Ошибок не произошло
AccurateRip: сводка
Трек  1  нет в базе данных
Трек  2  нет в базе данных
Трек  3  нет в базе данных
Трек  4  нет в базе данных
Трек  5  нет в базе данных
Трек  6  нет в базе данных
Трек  7  нет в базе данных
Трек  8  нет в базе данных
Трек  9  нет в базе данных
Трек 10  нет в базе данных
Трек 11  нет в базе данных
Ни одного трека нет в базе AccurateRip
Конец отчёта
-
Яндекс.Метрика
Рейтинг@Mail.ru