Sandra - So80s Presents Sandra [Curated By Blank & Jones] (2CD) (2012) [FLAC|Lossless]<Pop>

 

Создавать темы 17-Дек-2014 11:56

-Sandra - So80s Presents Sandra [Curated By Blank & Jones] (2CD) (2012)- Год: 2012
Жанр: Pop
Продолжительность: 02:37:41
Кодек: FLAC
Битрейт: Lossless-Треклист:-CD1 (01:19:00)
01. (I’ll Never Be) Maria Magdalena (Extended Version) (7:12)
02. In The Heat Of The Night (Extended Version) (7:25)
03. Little Girl (Extended Version) (5:21)
04. Innocent Love (Extended Version) (6:47)
05. Hi, Hi, Hi! (Extended Version) (6:13)
06. Midnight Man (Extended Version) (5:28)
07. Everlasting Love (Extended Version) (7:21)
08. Stop For A Minute (Extended Version) (6:18)
09. Heaven Can Wait (Extended Version) (7:41)
10. Secret Land (Reverse Mix) (6:35)
11. We’ll Be Together (Extended Version) (6:39)
12. Around My Heart (Extended Version) (6:00)-CD2 (01:18:47):
01. Everlasting Love (PWL 12” Mix) (7:43)
02. In The Heat Of The Night (Extended UK Mix) (6:57)
03. Heaven Can Wait (US Remix) (7:12)
04. Secret Land (M.I.D. DJ Mix) (6:50)
05. Everlasting Love (PWL Dub Mix) (6:58)
06. Party Games (3:25)
07. Heatwave (3:25)
08. Innocent Theme (3:18)
09. Heaven’s Theme (4:01)
10. Into Nobody’s Land (4:03)
11. It Means Forever (3:41)
12. Around My Drums (3:17)
13. Heaven Can Wait (Dub Mix) (4:04)
14. Secret Land (Dub Mix) (3:02)
15. We’ll Be Together (Dub Version) (3:45)
16. Hiroshima (Dub Mix) (3:10)
17. Everlasting Love (PWL 7 Mix) (3:58)-

Отчёт ЕАС&#58;

Общее
Полное имя : E:\Скачка\Sandra-So80sPresentsSandra2CD2012HQ\0-00. Sandra - So80s (Soeighties) Presents Sandra (2012).m3u
Размер файла : 2,58 Кбайт
Общее
Полное имя : E:\Скачка\Sandra-So80sPresentsSandra2CD2012HQ\1-01. (I'll Never Be) Maria Magdalena (Extended Version).flac
Формат : FLAC
Формат/Информация : Free Lossless Audio Codec
Размер файла : 48,8 Мбайт
Продолжительность : 7 м. 11 с.
Режим общего битрейта : Переменный
Общий поток : 948 Кбит/сек
Альбом : So80s Presents Sandra Curated by Blank & Jones
Альбом/Исполнитель : Sandra
Часть : 1
Часть/Всего : 2
Трек : (I'll Never Be) Maria Magdalena (Extended Version)
Трек/Положение : 1
Трек/Всего : 12
Исполнитель : Sandra
Продюсер : EMI
Жанр : Pop
Дата записи : 2012
Программа кодирования : FLAC1.2.1
Обложка : Yes
Тип обложки : Cover (front)
MIME-тип обложки : image/jpeg
Catalog : 50999 440850 2
Media : CD
Ripping Tool : EAC
Аудио
Формат : FLAC
Формат/Информация : Free Lossless Audio Codec
Продолжительность : 7 м. 11 с.
Вид битрейта : Переменный
Битрейт : 947 Кбит/сек
Каналы : 2 канала
Частота : 44,1 КГц
Битовая глубина : 16 бит
Размер потока : 48,8 Мбайт (100%)
Библиотека кодирования : libFLAC 1.2.1 (UTC 2007-09-17)
Общее
Полное имя : E:\Скачка\Sandra-So80sPresentsSandra2CD2012HQ\1-02. In The Heat Of The Night (Extended Version).flac
Формат : FLAC
Формат/Информация : Free Lossless Audio Codec
Размер файла : 53,0 Мбайт
Продолжительность : 7 м. 24 с.
Режим общего битрейта : Переменный
Общий поток : 999 Кбит/сек
Альбом : So80s Presents Sandra Curated by Blank & Jones
Альбом/Исполнитель : Sandra
Часть : 1
Часть/Всего : 2
Трек : In The Heat Of The Night (Extended Version)
Трек/Положение : 2
Трек/Всего : 12
Исполнитель : Sandra
Продюсер : EMI
Жанр : Pop
Дата записи : 2012
Программа кодирования : FLAC1.2.1
Обложка : Yes
Тип обложки : Cover (front)
MIME-тип обложки : image/jpeg
Catalog : 50999 440850 2
Media : CD
Ripping Tool : EAC
Аудио
Формат : FLAC
Формат/Информация : Free Lossless Audio Codec
Продолжительность : 7 м. 24 с.
Вид битрейта : Переменный
Битрейт : 998 Кбит/сек
Каналы : 2 канала
Частота : 44,1 КГц
Битовая глубина : 16 бит
Размер потока : 52,9 Мбайт (100%)
Библиотека кодирования : libFLAC 1.2.1 (UTC 2007-09-17)
Общее
Полное имя : E:\Скачка\Sandra-So80sPresentsSandra2CD2012HQ\1-03. Little Girl (Extended Version).flac
Формат : FLAC
Формат/Информация : Free Lossless Audio Codec
Размер файла : 35,4 Мбайт
Продолжительность : 5 м. 21 с.
Режим общего битрейта : Переменный
Общий поток : 925 Кбит/сек
Альбом : So80s Presents Sandra Curated by Blank & Jones
Альбом/Исполнитель : Sandra
Часть : 1
Часть/Всего : 2
Трек : Little Girl (Extended Version)
Трек/Положение : 3
Трек/Всего : 12
Исполнитель : Sandra
Продюсер : EMI
Жанр : Pop
Дата записи : 2012
Программа кодирования : FLAC1.2.1
Обложка : Yes
Тип обложки : Cover (front)
MIME-тип обложки : image/jpeg
Catalog : 50999 440850 2
Media : CD
Ripping Tool : EAC
Аудио
Формат : FLAC
Формат/Информация : Free Lossless Audio Codec
Продолжительность : 5 м. 21 с.
Вид битрейта : Переменный
Битрейт : 924 Кбит/сек
Каналы : 2 канала
Частота : 44,1 КГц
Битовая глубина : 16 бит
Размер потока : 35,4 Мбайт (100%)
Библиотека кодирования : libFLAC 1.2.1 (UTC 2007-09-17)
Общее
Полное имя : E:\Скачка\Sandra-So80sPresentsSandra2CD2012HQ\1-04. Innocent Love (Extended Version).flac
Формат : FLAC
Формат/Информация : Free Lossless Audio Codec
Размер файла : 46,2 Мбайт
Продолжительность : 6 м. 46 с.
Режим общего битрейта : Переменный
Общий поток : 952 Кбит/сек
Альбом : So80s Presents Sandra Curated by Blank & Jones
Альбом/Исполнитель : Sandra
Часть : 1
Часть/Всего : 2
Трек : Innocent Love (Extended Version)
Трек/Положение : 4
Трек/Всего : 12
Исполнитель : Sandra
Продюсер : EMI
Жанр : Pop
Дата записи : 2012
Программа кодирования : FLAC1.2.1
Обложка : Yes
Тип обложки : Cover (front)
MIME-тип обложки : image/jpeg
Catalog : 50999 440850 2
Media : CD
Ripping Tool : EAC
Аудио
Формат : FLAC
Формат/Информация : Free Lossless Audio Codec
Продолжительность : 6 м. 46 с.
Вид битрейта : Переменный
Битрейт : 952 Кбит/сек
Каналы : 2 канала
Частота : 44,1 КГц
Битовая глубина : 16 бит
Размер потока : 46,1 Мбайт (100%)
Библиотека кодирования : libFLAC 1.2.1 (UTC 2007-09-17)
Общее
Полное имя : E:\Скачка\Sandra-So80sPresentsSandra2CD2012HQ\1-05. Hi! Hi! Hi! (Extended Version).flac
Формат : FLAC
Формат/Информация : Free Lossless Audio Codec
Размер файла : 40,8 Мбайт
Продолжительность : 6 м. 13 с.
Режим общего битрейта : Переменный
Общий поток : 917 Кбит/сек
Альбом : So80s Presents Sandra Curated by Blank & Jones
Альбом/Исполнитель : Sandra
Часть : 1
Часть/Всего : 2
Трек : Hi! Hi! Hi! (Extended Version)
Трек/Положение : 5
Трек/Всего : 12
Исполнитель : Sandra
Продюсер : EMI
Жанр : Pop
Дата записи : 2012
Программа кодирования : FLAC1.2.1
Обложка : Yes
Тип обложки : Cover (front)
MIME-тип обложки : image/jpeg
Catalog : 50999 440850 2
Media : CD
Ripping Tool : EAC
Аудио
Формат : FLAC
Формат/Информация : Free Lossless Audio Codec
Продолжительность : 6 м. 13 с.
Вид битрейта : Переменный
Битрейт : 916 Кбит/сек
Каналы : 2 канала
Частота : 44,1 КГц
Битовая глубина : 16 бит
Размер потока : 40,7 Мбайт (100%)
Библиотека кодирования : libFLAC 1.2.1 (UTC 2007-09-17)
Общее
Полное имя : E:\Скачка\Sandra-So80sPresentsSandra2CD2012HQ\1-06. Midnight Man (Extended Version).flac
Формат : FLAC
Формат/Информация : Free Lossless Audio Codec
Размер файла : 36,4 Мбайт
Продолжительность : 5 м. 27 с.
Режим общего битрейта : Переменный
Общий поток : 932 Кбит/сек
Альбом : So80s Presents Sandra Curated by Blank & Jones
Альбом/Исполнитель : Sandra
Часть : 1
Часть/Всего : 2
Трек : Midnight Man (Extended Version)
Трек/Положение : 6
Трек/Всего : 12
Исполнитель : Sandra
Продюсер : EMI
Жанр : Pop
Дата записи : 2012
Программа кодирования : FLAC1.2.1
Обложка : Yes
Тип обложки : Cover (front)
MIME-тип обложки : image/jpeg
Catalog : 50999 440850 2
Media : CD
Ripping Tool : EAC
Аудио
Формат : FLAC
Формат/Информация : Free Lossless Audio Codec
Продолжительность : 5 м. 27 с.
Вид битрейта : Переменный
Битрейт : 931 Кбит/сек
Каналы : 2 канала
Частота : 44,1 КГц
Битовая глубина : 16 бит
Размер потока : 36,4 Мбайт (100%)
Библиотека кодирования : libFLAC 1.2.1 (UTC 2007-09-17)
Общее
Полное имя : E:\Скачка\Sandra-So80sPresentsSandra2CD2012HQ\1-07. Everlasting Love (Extended Version).flac
Формат : FLAC
Формат/Информация : Free Lossless Audio Codec
Размер файла : 50,8 Мбайт
Продолжительность : 7 м. 20 с.
Режим общего битрейта : Переменный
Общий поток : 966 Кбит/сек
Альбом : So80s Presents Sandra Curated by Blank & Jones
Альбом/Исполнитель : Sandra
Часть : 1
Часть/Всего : 2
Трек : Everlasting Love (Extended Version)
Трек/Положение : 7
Трек/Всего : 12
Исполнитель : Sandra
Продюсер : EMI
Жанр : Pop
Дата записи : 2012
Программа кодирования : FLAC1.2.1
Обложка : Yes
Тип обложки : Cover (front)
MIME-тип обложки : image/jpeg
Catalog : 50999 440850 2
Media : CD
Ripping Tool : EAC
Аудио
Формат : FLAC
Формат/Информация : Free Lossless Audio Codec
Продолжительность : 7 м. 20 с.
Вид битрейта : Переменный
Битрейт : 965 Кбит/сек
Каналы : 2 канала
Частота : 44,1 КГц
Битовая глубина : 16 бит
Размер потока : 50,7 Мбайт (100%)
Библиотека кодирования : libFLAC 1.2.1 (UTC 2007-09-17)
Общее
Полное имя : E:\Скачка\Sandra-So80sPresentsSandra2CD2012HQ\1-08. Stop For A Minute (Extended Version).flac
Формат : FLAC
Формат/Информация : Free Lossless Audio Codec
Размер файла : 46,2 Мбайт
Продолжительность : 6 м. 18 с.
Режим общего битрейта : Переменный
Общий поток : 1025 Кбит/сек
Альбом : So80s Presents Sandra Curated by Blank & Jones
Альбом/Исполнитель : Sandra
Часть : 1
Часть/Всего : 2
Трек : Stop For A Minute (Extended Version)
Трек/Положение : 8
Трек/Всего : 12
Исполнитель : Sandra
Продюсер : EMI
Жанр : Pop
Дата записи : 2012
Программа кодирования : FLAC1.2.1
Обложка : Yes
Тип обложки : Cover (front)
MIME-тип обложки : image/jpeg
Catalog : 50999 440850 2
Media : CD
Ripping Tool : EAC
Аудио
Формат : FLAC
Формат/Информация : Free Lossless Audio Codec
Продолжительность : 6 м. 18 с.
Вид битрейта : Переменный
Битрейт : 1024 Кбит/сек
Каналы : 2 канала
Частота : 44,1 КГц
Битовая глубина : 16 бит
Размер потока : 46,2 Мбайт (100%)
Библиотека кодирования : libFLAC 1.2.1 (UTC 2007-09-17)
Общее
Полное имя : E:\Скачка\Sandra-So80sPresentsSandra2CD2012HQ\1-09. Heaven Can Wait (Extended Version).flac
Формат : FLAC
Формат/Информация : Free Lossless Audio Codec
Размер файла : 52,9 Мбайт
Продолжительность : 7 м. 40 с.
Режим общего битрейта : Переменный
Общий поток : 964 Кбит/сек
Альбом : So80s Presents Sandra Curated by Blank & Jones
Альбом/Исполнитель : Sandra
Часть : 1
Часть/Всего : 2
Трек : Heaven Can Wait (Extended Version)
Трек/Положение : 9
Трек/Всего : 12
Исполнитель : Sandra
Продюсер : EMI
Жанр : Pop
Дата записи : 2012
Программа кодирования : FLAC1.2.1
Обложка : Yes
Тип обложки : Cover (front)
MIME-тип обложки : image/jpeg
Catalog : 50999 440850 2
Media : CD
Ripping Tool : EAC
Аудио
Формат : FLAC
Формат/Информация : Free Lossless Audio Codec
Продолжительность : 7 м. 40 с.
Вид битрейта : Переменный
Битрейт : 963 Кбит/сек
Каналы : 2 канала
Частота : 44,1 КГц
Битовая глубина : 16 бит
Размер потока : 52,9 Мбайт (100%)
Библиотека кодирования : libFLAC 1.2.1 (UTC 2007-09-17)
Общее
Полное имя : E:\Скачка\Sandra-So80sPresentsSandra2CD2012HQ\1-10. Secret Land (Reverse Mix).flac
Формат : FLAC
Формат/Информация : Free Lossless Audio Codec
Размер файла : 46,8 Мбайт
Продолжительность : 6 м. 34 с.
Режим общего битрейта : Переменный
Общий поток : 995 Кбит/сек
Альбом : So80s Presents Sandra Curated by Blank & Jones
Альбом/Исполнитель : Sandra
Часть : 1
Часть/Всего : 2
Трек : Secret Land (Reverse Mix)
Трек/Положение : 10
Трек/Всего : 12
Исполнитель : Sandra
Продюсер : EMI
Жанр : Pop
Дата записи : 2012
Программа кодирования : FLAC1.2.1
Обложка : Yes
Тип обложки : Cover (front)
MIME-тип обложки : image/jpeg
Catalog : 50999 440850 2
Media : CD
Ripping Tool : EAC
Аудио
Формат : FLAC
Формат/Информация : Free Lossless Audio Codec
Продолжительность : 6 м. 34 с.
Вид битрейта : Переменный
Битрейт : 994 Кбит/сек
Каналы : 2 канала
Частота : 44,1 КГц
Битовая глубина : 16 бит
Размер потока : 46,7 Мбайт (100%)
Библиотека кодирования : libFLAC 1.2.1 (UTC 2007-09-17)
Общее
Полное имя : E:\Скачка\Sandra-So80sPresentsSandra2CD2012HQ\1-11. We'll Be Together (Extended Version).flac
Формат : FLAC
Формат/Информация : Free Lossless Audio Codec
Размер файла : 46,3 Мбайт
Продолжительность : 6 м. 38 с.
Режим общего битрейта : Переменный
Общий поток : 975 Кбит/сек
Альбом : So80s Presents Sandra Curated by Blank & Jones
Альбом/Исполнитель : Sandra
Часть : 1
Часть/Всего : 2
Трек : We'll Be Together (Extended Version)
Трек/Положение : 11
Трек/Всего : 12
Исполнитель : Sandra
Продюсер : EMI
Жанр : Pop
Дата записи : 2012
Программа кодирования : FLAC1.2.1
Обложка : Yes
Тип обложки : Cover (front)
MIME-тип обложки : image/jpeg
Catalog : 50999 440850 2
Media : CD
Ripping Tool : EAC
Аудио
Формат : FLAC
Формат/Информация : Free Lossless Audio Codec
Продолжительность : 6 м. 38 с.
Вид битрейта : Переменный
Битрейт : 974 Кбит/сек
Каналы : 2 канала
Частота : 44,1 КГц
Битовая глубина : 16 бит
Размер потока : 46,3 Мбайт (100%)
Библиотека кодирования : libFLAC 1.2.1 (UTC 2007-09-17)
Общее
Полное имя : E:\Скачка\Sandra-So80sPresentsSandra2CD2012HQ\1-12. Around My Heart (Extended Version).flac
Формат : FLAC
Формат/Информация : Free Lossless Audio Codec
Размер файла : 42,1 Мбайт
Продолжительность : 5 м. 59 с.
Режим общего битрейта : Переменный
Общий поток : 982 Кбит/сек
Альбом : So80s Presents Sandra Curated by Blank & Jones
Альбом/Исполнитель : Sandra
Часть : 1
Часть/Всего : 2
Трек : Around My Heart (Extended Version)
Трек/Положение : 12
Трек/Всего : 12
Исполнитель : Sandra
Продюсер : EMI
Жанр : Pop
Дата записи : 2012
Программа кодирования : FLAC1.2.1
Обложка : Yes
Тип обложки : Cover (front)
MIME-тип обложки : image/jpeg
Catalog : 50999 440850 2
Media : CD
Ripping Tool : EAC
Аудио
Формат : FLAC
Формат/Информация : Free Lossless Audio Codec
Продолжительность : 5 м. 59 с.
Вид битрейта : Переменный
Битрейт : 981 Кбит/сек
Каналы : 2 канала
Частота : 44,1 КГц
Битовая глубина : 16 бит
Размер потока : 42,1 Мбайт (100%)
Библиотека кодирования : libFLAC 1.2.1 (UTC 2007-09-17)
Общее
Полное имя : E:\Скачка\Sandra-So80sPresentsSandra2CD2012HQ\2-01. Everlasting Love (PWL 12'' Mix).flac
Формат : FLAC
Формат/Информация : Free Lossless Audio Codec
Размер файла : 55,1 Мбайт
Продолжительность : 7 м. 42 с.
Режим общего битрейта : Переменный
Общий поток : 999 Кбит/сек
Альбом : So80s Presents Sandra Curated by Blank & Jones
Альбом/Исполнитель : Sandra
Часть : 2
Часть/Всего : 2
Трек : Everlasting Love (PWL 12'' Mix)
Трек/Положение : 1
Трек/Всего : 17
Исполнитель : Sandra
Продюсер : EMI
Жанр : Pop
Дата записи : 2012
Программа кодирования : FLAC1.2.1
Обложка : Yes
Тип обложки : Cover (front)
MIME-тип обложки : image/jpeg
Catalog : 50999 440850 2
Media : CD
Ripping Tool : EAC
Аудио
Формат : FLAC
Формат/Информация : Free Lossless Audio Codec
Продолжительность : 7 м. 42 с.
Вид битрейта : Переменный
Битрейт : 998 Кбит/сек
Каналы : 2 канала
Частота : 44,1 КГц
Битовая глубина : 16 бит
Размер потока : 55,0 Мбайт (100%)
Библиотека кодирования : libFLAC 1.2.1 (UTC 2007-09-17)
Общее
Полное имя : E:\Скачка\Sandra-So80sPresentsSandra2CD2012HQ\2-02. In The Heat Of The Night (Extended UK Mix).flac
Формат : FLAC
Формат/Информация : Free Lossless Audio Codec
Размер файла : 48,2 Мбайт
Продолжительность : 6 м. 57 с.
Режим общего битрейта : Переменный
Общий поток : 968 Кбит/сек
Альбом : So80s Presents Sandra Curated by Blank & Jones
Альбом/Исполнитель : Sandra
Часть : 2
Часть/Всего : 2
Трек : In The Heat Of The Night (Extended UK Mix)
Трек/Положение : 2
Трек/Всего : 17
Исполнитель : Sandra
Продюсер : EMI
Жанр : Pop
Дата записи : 2012
Программа кодирования : FLAC1.2.1
Обложка : Yes
Тип обложки : Cover (front)
MIME-тип обложки : image/jpeg
Catalog : 50999 440850 2
Media : CD
Ripping Tool : EAC
Аудио
Формат : FLAC
Формат/Информация : Free Lossless Audio Codec
Продолжительность : 6 м. 57 с.
Вид битрейта : Переменный
Битрейт : 967 Кбит/сек
Каналы : 2 канала
Частота : 44,1 КГц
Битовая глубина : 16 бит
Размер потока : 48,1 Мбайт (100%)
Библиотека кодирования : libFLAC 1.2.1 (UTC 2007-09-17)
Общее
Полное имя : E:\Скачка\Sandra-So80sPresentsSandra2CD2012HQ\2-03. Heaven Can Wait (US Remix).flac
Формат : FLAC
Формат/Информация : Free Lossless Audio Codec
Размер файла : 49,4 Мбайт
Продолжительность : 7 м. 11 с.
Режим общего битрейта : Переменный
Общий поток : 961 Кбит/сек
Альбом : So80s Presents Sandra Curated by Blank & Jones
Альбом/Исполнитель : Sandra
Часть : 2
Часть/Всего : 2
Трек : Heaven Can Wait (US Remix)
Трек/Положение : 3
Трек/Всего : 17
Исполнитель : Sandra
Продюсер : EMI
Жанр : Pop
Дата записи : 2012
Программа кодирования : FLAC1.2.1
Обложка : Yes
Тип обложки : Cover (front)
MIME-тип обложки : image/jpeg
Catalog : 50999 440850 2
Media : CD
Ripping Tool : EAC
Аудио
Формат : FLAC
Формат/Информация : Free Lossless Audio Codec
Продолжительность : 7 м. 11 с.
Вид битрейта : Переменный
Битрейт : 960 Кбит/сек
Каналы : 2 канала
Частота : 44,1 КГц
Битовая глубина : 16 бит
Размер потока : 49,4 Мбайт (100%)
Библиотека кодирования : libFLAC 1.2.1 (UTC 2007-09-17)
Общее
Полное имя : E:\Скачка\Sandra-So80sPresentsSandra2CD2012HQ\2-04. Secret Land (M.I.D. DJ Mix).flac
Формат : FLAC
Формат/Информация : Free Lossless Audio Codec
Размер файла : 50,9 Мбайт
Продолжительность : 6 м. 49 с.
Режим общего битрейта : Переменный
Общий поток : 1041 Кбит/сек
Альбом : So80s Presents Sandra Curated by Blank & Jones
Альбом/Исполнитель : Sandra
Часть : 2
Часть/Всего : 2
Трек : Secret Land (M.I.D. DJ Mix)
Трек/Положение : 4
Трек/Всего : 17
Исполнитель : Sandra
Продюсер : EMI
Жанр : Pop
Дата записи : 2012
Программа кодирования : FLAC1.2.1
Обложка : Yes
Тип обложки : Cover (front)
MIME-тип обложки : image/jpeg
Catalog : 50999 440850 2
Media : CD
Ripping Tool : EAC
Аудио
Формат : FLAC
Формат/Информация : Free Lossless Audio Codec
Продолжительность : 6 м. 49 с.
Вид битрейта : Переменный
Битрейт : 1040 Кбит/сек
Каналы : 2 канала
Частота : 44,1 КГц
Битовая глубина : 16 бит
Размер потока : 50,9 Мбайт (100%)
Библиотека кодирования : libFLAC 1.2.1 (UTC 2007-09-17)
Общее
Полное имя : E:\Скачка\Sandra-So80sPresentsSandra2CD2012HQ\2-05. Everlasting Love (PWL Dub Mix).flac
Формат : FLAC
Формат/Информация : Free Lossless Audio Codec
Размер файла : 49,7 Мбайт
Продолжительность : 6 м. 57 с.
Режим общего битрейта : Переменный
Общий поток : 999 Кбит/сек
Альбом : So80s Presents Sandra Curated by Blank & Jones
Альбом/Исполнитель : Sandra
Часть : 2
Часть/Всего : 2
Трек : Everlasting Love (PWL Dub Mix)
Трек/Положение : 5
Трек/Всего : 17
Исполнитель : Sandra
Продюсер : EMI
Жанр : Pop
Дата записи : 2012
Программа кодирования : FLAC1.2.1
Обложка : Yes
Тип обложки : Cover (front)
MIME-тип обложки : image/jpeg
Catalog : 50999 440850 2
Media : CD
Ripping Tool : EAC
Аудио
Формат : FLAC
Формат/Информация : Free Lossless Audio Codec
Продолжительность : 6 м. 57 с.
Вид битрейта : Переменный
Битрейт : 998 Кбит/сек
Каналы : 2 канала
Частота : 44,1 КГц
Битовая глубина : 16 бит
Размер потока : 49,7 Мбайт (100%)
Библиотека кодирования : libFLAC 1.2.1 (UTC 2007-09-17)
Общее
Полное имя : E:\Скачка\Sandra-So80sPresentsSandra2CD2012HQ\2-06. Party Games.flac
Формат : FLAC
Формат/Информация : Free Lossless Audio Codec
Размер файла : 22,2 Мбайт
Продолжительность : 3 м. 24 с.
Режим общего битрейта : Переменный
Общий поток : 911 Кбит/сек
Альбом : So80s Presents Sandra Curated by Blank & Jones
Альбом/Исполнитель : Sandra
Часть : 2
Часть/Всего : 2
Трек : Party Games
Трек/Положение : 6
Трек/Всего : 17
Исполнитель : Sandra
Продюсер : EMI
Жанр : Pop
Дата записи : 2012
Программа кодирования : FLAC1.2.1
Обложка : Yes
Тип обложки : Cover (front)
MIME-тип обложки : image/jpeg
Catalog : 50999 440850 2
Media : CD
Ripping Tool : EAC
Аудио
Формат : FLAC
Формат/Информация : Free Lossless Audio Codec
Продолжительность : 3 м. 24 с.
Вид битрейта : Переменный
Битрейт : 909 Кбит/сек
Каналы : 2 канала
Частота : 44,1 КГц
Битовая глубина : 16 бит
Размер потока : 22,1 Мбайт (100%)
Библиотека кодирования : libFLAC 1.2.1 (UTC 2007-09-17)
Общее
Полное имя : E:\Скачка\Sandra-So80sPresentsSandra2CD2012HQ\2-07. Heatwave.flac
Формат : FLAC
Формат/Информация : Free Lossless Audio Codec
Размер файла : 22,9 Мбайт
Продолжительность : 3 м. 24 с.
Режим общего битрейта : Переменный
Общий поток : 938 Кбит/сек
Альбом : So80s Presents Sandra Curated by Blank & Jones
Альбом/Исполнитель : Sandra
Часть : 2
Часть/Всего : 2
Трек : Heatwave
Трек/Положение : 7
Трек/Всего : 17
Исполнитель : Sandra
Продюсер : EMI
Жанр : Pop
Дата записи : 2012
Программа кодирования : FLAC1.2.1
Обложка : Yes
Тип обложки : Cover (front)
MIME-тип обложки : image/jpeg
Catalog : 50999 440850 2
Media : CD
Ripping Tool : EAC
Аудио
Формат : FLAC
Формат/Информация : Free Lossless Audio Codec
Продолжительность : 3 м. 24 с.
Вид битрейта : Переменный
Битрейт : 936 Кбит/сек
Каналы : 2 канала
Частота : 44,1 КГц
Битовая глубина : 16 бит
Размер потока : 22,9 Мбайт (100%)
Библиотека кодирования : libFLAC 1.2.1 (UTC 2007-09-17)
Общее
Полное имя : E:\Скачка\Sandra-So80sPresentsSandra2CD2012HQ\2-08. Innocent Theme.flac
Формат : FLAC
Формат/Информация : Free Lossless Audio Codec
Размер файла : 21,4 Мбайт
Продолжительность : 3 м. 17 с.
Режим общего битрейта : Переменный
Общий поток : 911 Кбит/сек
Альбом : So80s Presents Sandra Curated by Blank & Jones
Альбом/Исполнитель : Sandra
Часть : 2
Часть/Всего : 2
Трек : Innocent Theme
Трек/Положение : 8
Трек/Всего : 17
Исполнитель : Sandra
Продюсер : EMI
Жанр : Pop
Дата записи : 2012
Программа кодирования : FLAC1.2.1
Обложка : Yes
Тип обложки : Cover (front)
MIME-тип обложки : image/jpeg
Catalog : 50999 440850 2
Media : CD
Ripping Tool : EAC
Аудио
Формат : FLAC
Формат/Информация : Free Lossless Audio Codec
Продолжительность : 3 м. 17 с.
Вид битрейта : Переменный
Битрейт : 909 Кбит/сек
Каналы : 2 канала
Частота : 44,1 КГц
Битовая глубина : 16 бит
Размер потока : 21,4 Мбайт (100%)
Библиотека кодирования : libFLAC 1.2.1 (UTC 2007-09-17)
Общее
Полное имя : E:\Скачка\Sandra-So80sPresentsSandra2CD2012HQ\2-09. Heaven's Theme.flac
Формат : FLAC
Формат/Информация : Free Lossless Audio Codec
Размер файла : 27,8 Мбайт
Продолжительность : 4 м. 0 с.
Режим общего битрейта : Переменный
Общий поток : 966 Кбит/сек
Альбом : So80s Presents Sandra Curated by Blank & Jones
Альбом/Исполнитель : Sandra
Часть : 2
Часть/Всего : 2
Трек : Heaven's Theme
Трек/Положение : 9
Трек/Всего : 17
Исполнитель : Sandra
Продюсер : EMI
Жанр : Pop
Дата записи : 2012
Программа кодирования : FLAC1.2.1
Обложка : Yes
Тип обложки : Cover (front)
MIME-тип обложки : image/jpeg
Catalog : 50999 440850 2
Media : CD
Ripping Tool : EAC
Аудио
Формат : FLAC
Формат/Информация : Free Lossless Audio Codec
Продолжительность : 4 м. 0 с.
Вид битрейта : Переменный
Битрейт : 965 Кбит/сек
Каналы : 2 канала
Частота : 44,1 КГц
Битовая глубина : 16 бит
Размер потока : 27,7 Мбайт (100%)
Библиотека кодирования : libFLAC 1.2.1 (UTC 2007-09-17)
Общее
Полное имя : E:\Скачка\Sandra-So80sPresentsSandra2CD2012HQ\2-10. Into Nobody's Land.flac
Формат : FLAC
Формат/Информация : Free Lossless Audio Codec
Размер файла : 28,6 Мбайт
Продолжительность : 4 м. 2 с.
Режим общего битрейта : Переменный
Общий поток : 987 Кбит/сек
Альбом : So80s Presents Sandra Curated by Blank & Jones
Альбом/Исполнитель : Sandra
Часть : 2
Часть/Всего : 2
Трек : Into Nobody's Land
Трек/Положение : 10
Трек/Всего : 17
Исполнитель : Sandra
Продюсер : EMI
Жанр : Pop
Дата записи : 2012
Программа кодирования : FLAC1.2.1
Обложка : Yes
Тип обложки : Cover (front)
MIME-тип обложки : image/jpeg
Catalog : 50999 440850 2
Media : CD
Ripping Tool : EAC
Аудио
Формат : FLAC
Формат/Информация : Free Lossless Audio Codec
Продолжительность : 4 м. 2 с.
Вид битрейта : Переменный
Битрейт : 986 Кбит/сек
Каналы : 2 канала
Частота : 44,1 КГц
Битовая глубина : 16 бит
Размер потока : 28,5 Мбайт (100%)
Библиотека кодирования : libFLAC 1.2.1 (UTC 2007-09-17)
Общее
Полное имя : E:\Скачка\Sandra-So80sPresentsSandra2CD2012HQ\2-11. It Means Forever.flac
Формат : FLAC
Формат/Информация : Free Lossless Audio Codec
Размер файла : 27,1 Мбайт
Продолжительность : 3 м. 40 с.
Режим общего битрейта : Переменный
Общий поток : 1028 Кбит/сек
Альбом : So80s Presents Sandra Curated by Blank & Jones
Альбом/Исполнитель : Sandra
Часть : 2
Часть/Всего : 2
Трек : It Means Forever
Трек/Положение : 11
Трек/Всего : 17
Исполнитель : Sandra
Продюсер : EMI
Жанр : Pop
Дата записи : 2012
Программа кодирования : FLAC1.2.1
Обложка : Yes
Тип обложки : Cover (front)
MIME-тип обложки : image/jpeg
Catalog : 50999 440850 2
Media : CD
Ripping Tool : EAC
Аудио
Формат : FLAC
Формат/Информация : Free Lossless Audio Codec
Продолжительность : 3 м. 40 с.
Вид битрейта : Переменный
Битрейт : 1026 Кбит/сек
Каналы : 2 канала
Частота : 44,1 КГц
Битовая глубина : 16 бит
Размер потока : 27,0 Мбайт (100%)
Библиотека кодирования : libFLAC 1.2.1 (UTC 2007-09-17)
Общее
Полное имя : E:\Скачка\Sandra-So80sPresentsSandra2CD2012HQ\2-12. Around My Drums.flac
Формат : FLAC
Формат/Информация : Free Lossless Audio Codec
Размер файла : 22,1 Мбайт
Продолжительность : 3 м. 16 с.
Режим общего битрейта : Переменный
Общий поток : 942 Кбит/сек
Альбом : So80s Presents Sandra Curated by Blank & Jones
Альбом/Исполнитель : Sandra
Часть : 2
Часть/Всего : 2
Трек : Around My Drums
Трек/Положение : 12
Трек/Всего : 17
Исполнитель : Sandra
Продюсер : EMI
Жанр : Pop
Дата записи : 2012
Программа кодирования : FLAC1.2.1
Обложка : Yes
Тип обложки : Cover (front)
MIME-тип обложки : image/jpeg
Catalog : 50999 440850 2
Media : CD
Ripping Tool : EAC
Аудио
Формат : FLAC
Формат/Информация : Free Lossless Audio Codec
Продолжительность : 3 м. 16 с.
Вид битрейта : Переменный
Битрейт : 940 Кбит/сек
Каналы : 2 канала
Частота : 44,1 КГц
Битовая глубина : 16 бит
Размер потока : 22,0 Мбайт (100%)
Библиотека кодирования : libFLAC 1.2.1 (UTC 2007-09-17)
Общее
Полное имя : E:\Скачка\Sandra-So80sPresentsSandra2CD2012HQ\2-13. Heaven Can Wait (Dub Mix).flac
Формат : FLAC
Формат/Информация : Free Lossless Audio Codec
Размер файла : 26,7 Мбайт
Продолжительность : 4 м. 3 с.
Режим общего битрейта : Переменный
Общий поток : 919 Кбит/сек
Альбом : So80s Presents Sandra Curated by Blank & Jones
Альбом/Исполнитель : Sandra
Часть : 2
Часть/Всего : 2
Трек : Heaven Can Wait (Dub Mix)
Трек/Положение : 13
Трек/Всего : 17
Исполнитель : Sandra
Продюсер : EMI
Жанр : Pop
Дата записи : 2012
Программа кодирования : FLAC1.2.1
Обложка : Yes
Тип обложки : Cover (front)
MIME-тип обложки : image/jpeg
Catalog : 50999 440850 2
Media : CD
Ripping Tool : EAC
Аудио
Формат : FLAC
Формат/Информация : Free Lossless Audio Codec
Продолжительность : 4 м. 3 с.
Вид битрейта : Переменный
Битрейт : 917 Кбит/сек
Каналы : 2 канала
Частота : 44,1 КГц
Битовая глубина : 16 бит
Размер потока : 26,6 Мбайт (100%)
Библиотека кодирования : libFLAC 1.2.1 (UTC 2007-09-17)
Общее
Полное имя : E:\Скачка\Sandra-So80sPresentsSandra2CD2012HQ\2-14. Secret Land (Dub Mix).flac
Формат : FLAC
Формат/Информация : Free Lossless Audio Codec
Размер файла : 19,6 Мбайт
Продолжительность : 3 м. 1 с.
Режим общего битрейта : Переменный
Общий поток : 906 Кбит/сек
Альбом : So80s Presents Sandra Curated by Blank & Jones
Альбом/Исполнитель : Sandra
Часть : 2
Часть/Всего : 2
Трек : Secret Land (Dub Mix)
Трек/Положение : 14
Трек/Всего : 17
Исполнитель : Sandra
Продюсер : EMI
Жанр : Pop
Дата записи : 2012
Программа кодирования : FLAC1.2.1
Обложка : Yes
Тип обложки : Cover (front)
MIME-тип обложки : image/jpeg
Catalog : 50999 440850 2
Media : CD
Ripping Tool : EAC
Аудио
Формат : FLAC
Формат/Информация : Free Lossless Audio Codec
Продолжительность : 3 м. 1 с.
Вид битрейта : Переменный
Битрейт : 904 Кбит/сек
Каналы : 2 канала
Частота : 44,1 КГц
Битовая глубина : 16 бит
Размер потока : 19,6 Мбайт (100%)
Библиотека кодирования : libFLAC 1.2.1 (UTC 2007-09-17)
Общее
Полное имя : E:\Скачка\Sandra-So80sPresentsSandra2CD2012HQ\2-15. We'll Be Together (Dub Version).flac
Формат : FLAC
Формат/Информация : Free Lossless Audio Codec
Размер файла : 26,5 Мбайт
Продолжительность : 3 м. 44 с.
Режим общего битрейта : Переменный
Общий поток : 992 Кбит/сек
Альбом : So80s Presents Sandra Curated by Blank & Jones
Альбом/Исполнитель : Sandra
Часть : 2
Часть/Всего : 2
Трек : We'll Be Together (Dub Version)
Трек/Положение : 15
Трек/Всего : 17
Исполнитель : Sandra
Продюсер : EMI
Жанр : Pop
Дата записи : 2012
Программа кодирования : FLAC1.2.1
Обложка : Yes
Тип обложки : Cover (front)
MIME-тип обложки : image/jpeg
Catalog : 50999 440850 2
Media : CD
Ripping Tool : EAC
Аудио
Формат : FLAC
Формат/Информация : Free Lossless Audio Codec
Продолжительность : 3 м. 44 с.
Вид битрейта : Переменный
Битрейт : 991 Кбит/сек
Каналы : 2 канала
Частота : 44,1 КГц
Битовая глубина : 16 бит
Размер потока : 26,5 Мбайт (100%)
Библиотека кодирования : libFLAC 1.2.1 (UTC 2007-09-17)
Общее
Полное имя : E:\Скачка\Sandra-So80sPresentsSandra2CD2012HQ\2-16. Hiroshima (Dub Mix).flac
Формат : FLAC
Формат/Информация : Free Lossless Audio Codec
Размер файла : 22,3 Мбайт
Продолжительность : 3 м. 9 с.
Режим общего битрейта : Переменный
Общий поток : 985 Кбит/сек
Альбом : So80s Presents Sandra Curated by Blank & Jones
Альбом/Исполнитель : Sandra
Часть : 2
Часть/Всего : 2
Трек : Hiroshima (Dub Mix)
Трек/Положение : 16
Трек/Всего : 17
Исполнитель : Sandra
Продюсер : EMI
Жанр : Pop
Дата записи : 2012
Программа кодирования : FLAC1.2.1
Обложка : Yes
Тип обложки : Cover (front)
MIME-тип обложки : image/jpeg
Catalog : 50999 440850 2
Media : CD
Ripping Tool : EAC
Аудио
Формат : FLAC
Формат/Информация : Free Lossless Audio Codec
Продолжительность : 3 м. 9 с.
Вид битрейта : Переменный
Битрейт : 983 Кбит/сек
Каналы : 2 канала
Частота : 44,1 КГц
Битовая глубина : 16 бит
Размер потока : 22,2 Мбайт (100%)
Библиотека кодирования : libFLAC 1.2.1 (UTC 2007-09-17)
Общее
Полное имя : E:\Скачка\Sandra-So80sPresentsSandra2CD2012HQ\2-17. Everlasting Love (PWL 7'' Mix).flac
Формат : FLAC
Формат/Информация : Free Lossless Audio Codec
Размер файла : 28,4 Мбайт
Продолжительность : 3 м. 57 с.
Режим общего битрейта : Переменный
Общий поток : 1002 Кбит/сек
Альбом : So80s Presents Sandra Curated by Blank & Jones
Альбом/Исполнитель : Sandra
Часть : 2
Часть/Всего : 2
Трек : Everlasting Love (PWL 7'' Mix)
Трек/Положение : 17
Трек/Всего : 17
Исполнитель : Sandra
Продюсер : EMI
Жанр : Pop
Дата записи : 2012
Программа кодирования : FLAC1.2.1
Обложка : Yes
Тип обложки : Cover (front)
MIME-тип обложки : image/jpeg
Catalog : 50999 440850 2
Media : CD
Ripping Tool : EAC
Аудио
Формат : FLAC
Формат/Информация : Free Lossless Audio Codec
Продолжительность : 3 м. 57 с.
Вид битрейта : Переменный
Битрейт : 1001 Кбит/сек
Каналы : 2 канала
Частота : 44,1 КГц
Битовая глубина : 16 бит
Размер потока : 28,4 Мбайт (100%)
Библиотека кодирования : libFLAC 1.2.1 (UTC 2007-09-17)
Общее
Полное имя : E:\Скачка\Sandra-So80sPresentsSandra2CD2012HQ\audiochecker.log
Размер файла : 2,01 Кбайт
Общее
Полное имя : E:\Скачка\Sandra-So80sPresentsSandra2CD2012HQ\cover.jpg
Формат : JPEG
Размер файла : 40,0 Кбайт
Изображения
Формат : JPEG
Ширина : 600 пикселей
Высота : 600 пикселей
Субдискретизация насыщенности : 4:2:2
Битовая глубина : 8 бит
Метод сжатия : С потерями

Отчёт auCDtect Task manager&#58;

-----------------------
DON'T MODIFY THIS FILE
-----------------------
PERFORMER: auCDtect Task Manager, ver. 1.5.1RC6 build 1.5.1.7
Copyright (c) 2008-2010 y-soft. All rights reserved
http://y-soft.org
ANALYZER: auCDtect: CD records authenticity detector, version 0.8.2
Copyright (c) 2004 Oleg Berngardt. All rights reserved.
Copyright (c) 2004 Alexander Djourik. All rights reserved.
FILE: 2-17. Everlasting Love (PWL 7'' Mix).flac
  Size: 29807345 Hash: E201B749EB7F70870ADB785EA76FD8BE Accuracy: -m8
  Conclusion: CDDA 100%
  Signature: 6A00171094088824DEA845407549DDA251359A71
FILE: 2-16. Hiroshima (Dub Mix).flac
  Size: 23375474 Hash: 6E4D17B548626B26C208AEAA7D93A66F Accuracy: -m8
  Conclusion: CDDA 100%
  Signature: CDF93C0CB94B5C7C2195C988D7655C7F89F9C523
FILE: 2-15. We'll Be Together (Dub Version).flac
  Size: 27838534 Hash: 917DEFBAE2E6585C641BFCFD729A2509 Accuracy: -m8
  Conclusion: CDDA 100%
  Signature: A99A2330AADF571ECADCCF3F7DE6F06F926FF991
FILE: 2-14. Secret Land (Dub Mix).flac
  Size: 20559648 Hash: 3D3ADAB3405D9412B8FED80BC3A7B259 Accuracy: -m8
  Conclusion: CDDA 99%
  Signature: FB8582C6C0B50A623C66E36A1BE1533EE3F02347
FILE: 2-13. Heaven Can Wait (Dub Mix).flac
  Size: 27984913 Hash: 4A82762EC49FA8BD8BE500B1A3DF12CD Accuracy: -m8
  Conclusion: CDDA 100%
  Signature: 35ECCF2D0BA200A62ADA46421E8FB9200D5D60F4
FILE: 2-12. Around My Drums.flac
  Size: 23126019 Hash: B33AC0A11DE49688506712096944433C Accuracy: -m8
  Conclusion: CDDA 100%
  Signature: 72171ECD381348AD3D9DF49F20CD41BE33BA0504
FILE: 2-11. It Means Forever.flac
  Size: 28389661 Hash: C93D9BC085C4CBDD4F83512A5DC20081 Accuracy: -m8
  Conclusion: CDDA 100%
  Signature: 36B9FA161191414D77DDAE5141904AC050A6F669
FILE: 2-10. Into Nobody's Land.flac
  Size: 29952744 Hash: 8C6326A8C76932B9028C5FC9D8E8B7C4 Accuracy: -m8
  Conclusion: CDDA 100%
  Signature: E4685DFA810B8036A41EE9A48D27B6DD2CF67EF7
FILE: 2-09. Heaven's Theme.flac
  Size: 29107366 Hash: 940E54E7268956CAB3325EE259CE6A11 Accuracy: -m8
  Conclusion: CDDA 100%
  Signature: 4030E8D08D72F218A1EED3E0232D97FAE9A1911E
FILE: 2-08. Innocent Theme.flac
  Size: 22469088 Hash: AE3B6E3742B843ABEF213345E631F69D Accuracy: -m8
  Conclusion: CDDA 100%
  Signature: A1179E4CFA260AD6788EE1AAA5905BD169DFA9A7
FILE: 2-07. Heatwave.flac
  Size: 24027735 Hash: F6618BD970965D3723AA0640A3A28C1C Accuracy: -m8
  Conclusion: CDDA 100%
  Signature: A9BFDC34C3A19D7670B9BD2F06C1A02CAB8ADBA6
FILE: 2-06. Party Games.flac
  Size: 23258574 Hash: BF35C9A72ABBAE7757A83AE1B011ADE0 Accuracy: -m8
  Conclusion: CDDA 100%
  Signature: D547BE4F66213CBD44E9069B4D1B6841BED2FEC4
FILE: 2-05. Everlasting Love (PWL Dub Mix).flac
  Size: 52117018 Hash: 0499FF67AA83C00C13EBD49BFA1CC920 Accuracy: -m8
  Conclusion: CDDA 100%
  Signature: FC3617020D3C9FED3A6EC45C2DF0D067D7566DAE
FILE: 2-04. Secret Land (M.I.D. DJ Mix).flac
  Size: 53367283 Hash: 88A305852CCA0D7977DBDB93A63E23C9 Accuracy: -m8
  Conclusion: CDDA 100%
  Signature: A523127500398B832EF550E1920131656674742B
FILE: 2-03. Heaven Can Wait (US Remix).flac
  Size: 51829956 Hash: B194316924A1B4BB2E3B31EEA2A97801 Accuracy: -m8
  Conclusion: CDDA 100%
  Signature: 1F9CDE386CCE84206E5B3EF3994057F01561BFA3
FILE: 2-02. In The Heat Of The Night (Extended UK Mix).flac
  Size: 50491626 Hash: FBD06DD77A7339D4FFBEBBDFCD68B2D0 Accuracy: -m8
  Conclusion: CDDA 100%
  Signature: EA4FD0CA91DF30B7DCAB60861323D0971FE872DC
FILE: 2-01. Everlasting Love (PWL 12'' Mix).flac
  Size: 57730751 Hash: 1F6BFBF4417E2EC7C3D80AB166A46361 Accuracy: -m8
  Conclusion: CDDA 100%
  Signature: BC2CA5DA020D4A24DC3AE2B40F93DD9FCC95035D
FILE: 1-12. Around My Heart (Extended Version).flac
  Size: 44146743 Hash: E001A72FE4820E9ADEA5E0019A2E5126 Accuracy: -m8
  Conclusion: CDDA 100%
  Signature: AC0E0ADC1285237880C1796D4FB314D0F4014C38
FILE: 1-11. We'll Be Together (Extended Version).flac
  Size: 48560497 Hash: E7C2C71CABDCCF53E1A848D33168AC52 Accuracy: -m8
  Conclusion: CDDA 100%
  Signature: 6C8EC18D7D2B507571534D49DAF2AED12E1CC5D6
FILE: 1-10. Secret Land (Reverse Mix).flac
  Size: 49056977 Hash: 82F7B362B76030A9A5D179957D2CF52A Accuracy: -m8
  Conclusion: CDDA 100%
  Signature: 55D5270169C94AAEF6E3E45EF3F943291F2342A7
FILE: 1-09. Heaven Can Wait (Extended Version).flac
  Size: 55467319 Hash: A39F98893135C168398BDE57F4F0CCA9 Accuracy: -m8
  Conclusion: CDDA 100%
  Signature: 1C26FE46E66AF34AED3FAA9DC611B911AE39DC70
FILE: 1-08. Stop For A Minute (Extended Version).flac
  Size: 48453097 Hash: 6C3DCC3988FC41A7A9353355E947E321 Accuracy: -m8
  Conclusion: CDDA 99%
  Signature: 5E1E20D9AA6FDD634E9801BDA6E2F49EC64A5080
FILE: 1-07. Everlasting Love (Extended Version).flac
  Size: 53241118 Hash: 36C3BC5AB58D47CAC74DF6224A4282BC Accuracy: -m8
  Conclusion: CDDA 100%
  Signature: AC3570BBFBDF0702500F5AAB713BDEC16C72E5AF
FILE: 1-06. Midnight Man (Extended Version).flac
  Size: 38192983 Hash: AE2317C2E8C0B6F18F665762CC7299A8 Accuracy: -m8
  Conclusion: CDDA 100%
  Signature: FA1684AED8676F1231271E90AC65250B60EB2D75
FILE: 1-04. Innocent Love (Extended Version).flac
  Size: 48433907 Hash: A76EEA9720D98E158B1F64C2D496CC8B Accuracy: -m8
  Conclusion: CDDA 100%
  Signature: 996B197CBAF4ACFD5C38F131D00BD04978D3738D
FILE: 1-03. Little Girl (Extended Version).flac
  Size: 37119252 Hash: BF244B9D3849CD907DA67CD3D64A8C0C Accuracy: -m8
  Conclusion: CDDA 100%
  Signature: 1A36837450F946C46DFD662A727DB682D1BCD25F
FILE: 1-02. In The Heat Of The Night (Extended Version).flac
  Size: 55544598 Hash: E6D89897D3C487A9C0C66E68B32A0F4F Accuracy: -m8
  Conclusion: CDDA 100%
  Signature: D51FB01A3EABDBDC771CAAE318A768DF9934B3EA
FILE: 1-01. (I'll Never Be) Maria Magdalena (Extended Version).flac
  Size: 51174842 Hash: E0B48DD3DF0DB562081A5857E1C4B359 Accuracy: -m8
  Conclusion: CDDA 100%
  Signature: B1254FACA344CECF823D71115986AA68B28A609F
-
Яндекс.Метрика
Рейтинг@Mail.ru