[ Сегодня на трекере фрилич! Идет свободное скачивание без начисления Download ]

Princessa - I Won't Forget You (1999) [FLAC|Lossless]<Europop>

 

Создавать темы 17-Дек-2014 11:54

-Princessa - I Won't Forget You (1999)- Стиль: Europop
Страна-производитель диска: Japan / East West Japan Inc.
Год издания: 1999
Издатель (лейбл): EastWest Records Gmbh
Номер по каталогу: AMCE-2980
Аудиокодек: FLAC (*.flac)
Тип рипа: Image + .cue
Битрейт аудио: Lossless
Продолжительность: 00:52:44
Наличие сканов: Да
Трек лист:
01. I Won't Forget You
02. Grand Design
03. I Wanna Live With You
04. (You Just) Believe In You
05. I Was Wrong
06. It Just Begun
07. The Way The Story Goes
08. Shut Up And Kiss Me
09. So Many People
10. Tell Her
11. A Better Man
12. Once In A Lifetime
13. Snowflakes
Bonus track:
14. I Won't Forget You (Alternative Version)

Отчёт ЕАС&#58;

Exact Audio Copy V0.99 prebeta 5 from 4. May 2009
EAC extraction logfile from 17. December 2012, 23:52
Princessa / I Won't Forget You
Used drive  : ASUS    DRW-20B1ST   Adapter: 2  ID: 0
Read mode               : Secure
Utilize accurate stream : Yes
Defeat audio cache      : Yes
Make use of C2 pointers : No
Read offset correction                      : 6
Overread into Lead-In and Lead-Out          : No
Fill up missing offset samples with silence : Yes
Delete leading and trailing silent blocks   : No
Null samples used in CRC calculations       : Yes
Used interface                              : Installed external ASPI interface
Used output format              : User Defined Encoder
Selected bitrate                : 32 kBit/s
Quality                         : High
Add ID3 tag                     : No
Command line compressor         : C:\Program Files\Exact Audio Copy\Flac\flac.exe
Additional command line options : -T "DATE=%y" -T "GENRE=%m" -8 -V %s
TOC of the extracted CD
     Track |   Start  |  Length  | Start sector | End sector
    ---------------------------------------------------------
        1  |  0:00.00 |  4:12.12 |         0    |    18911
        2  |  4:12.12 |  3:48.05 |     18912    |    36016
        3  |  8:00.17 |  3:42.38 |     36017    |    52704
        4  | 11:42.55 |  3:39.35 |     52705    |    69164
        5  | 15:22.15 |  4:29.50 |     69165    |    89389
        6  | 19:51.65 |  3:57.12 |     89390    |   107176
        7  | 23:49.02 |  4:20.35 |    107177    |   126711
        8  | 28:09.37 |  3:46.08 |    126712    |   143669
        9  | 31:55.45 |  3:40.30 |    143670    |   160199
       10  | 35:36.00 |  3:30.60 |    160200    |   176009
       11  | 39:06.60 |  2:23.57 |    176010    |   186791
       12  | 41:30.42 |  3:27.20 |    186792    |   202336
       13  | 44:57.62 |  3:45.48 |    202337    |   219259
       14  | 48:43.35 |  4:00.42 |    219260    |   237301
Range status and errors
Selected range
     Filename D:\Princessa - I Won't Forget You.wav
     Peak level 100.0 %
     Range quality 100.0 %
     Test CRC E0D97507
     Copy CRC E0D97507
     Copy OK
No errors occurred
AccurateRip summary
Track  1  not present in database
Track  2  not present in database
Track  3  not present in database
Track  4  not present in database
Track  5  not present in database
Track  6  not present in database
Track  7  not present in database
Track  8  not present in database
Track  9  not present in database
Track 10  not present in database
Track 11  not present in database
Track 12  not present in database
Track 13  not present in database
Track 14  not present in database
None of the tracks are present in the AccurateRip database
End of status report

Отчёт auCDtect Task manager&#58;

-----------------------
DON'T MODIFY THIS FILE
-----------------------
PERFORMER: auCDtect Task Manager, ver. 1.5.1RC6 build 1.5.1.7
Copyright (c) 2008-2010 y-soft. All rights reserved
http://y-soft.org
ANALYZER: auCDtect: CD records authenticity detector, version 0.8.2
Copyright (c) 2004 Oleg Berngardt. All rights reserved.
Copyright (c) 2004 Alexander Djourik. All rights reserved.
FILE: Princessa - I Won't Forget You.flac
  Size: 382302633 Hash: F86B80251014CA68A16BA1B8DD67A9C5 Accuracy: -m0
  Conclusion: CDDA 100%
  Signature: CB1F5C2F53D1A0C4DD0898B362572B4EDD684E5A
-
Яндекс.Метрика
Рейтинг@Mail.ru