[ Сегодня на трекере фрилич! Идет свободное скачивание без начисления Download ]

Frank Duval - Greatest Hits (2CD) (2012) [FLAC|Lossless]<Pop>

 

Создавать темы 17-Дек-2014 11:54

-Frank Duval - Greatest Hits (2CD) (2012)- Лейбл: Sony Music
Каталог: 4607147911242 31269 1/2
Страна-производитель диска: Россия
Год: 2012
Жанр: Pop
Продолжительность: 02:39:10
Кодек: FLAC
Битрейт: Lossless-Frank Duval - немецкий композитор, певец и аранжировщик.
В шестидесятых начинает сочинять собственную музыку. В 1977-м году состоялась его дебютная работа для немецкого телевизионного сериала «Tatort».
В 1979-м на лейбле Teldec выходит первый альбом «Die Schonsten Melodien Aus Derrick und der Alte», с этого момента, вплоть до 1994-го года, сольные работы Фрэнка Дюваля появляются в Германии и Европе почти ежегодно, чередуясь со сборниками мелодий, написанных для кино и телевидения.
-

CD1

Трек лист:
01. Ballade Pour Adeline
02. Autumn Dreams
03. Todesengel
04. Angel Of Mine
05. Song Of Theben
06. Cry For Our World
07. Face To Face
08. If I Could Fly Away
09. Give Me Your Love
10. Living Like A Cry
11. Lord
12. Time For Lovers
13. It Was Love
14. Lovers Will Survive
15. When You Were Mine
Продолжительность: 01:19:16

Отчёт ЕАС&#58;

Exact Audio Copy V0.99 prebeta 5 from 4. May 2009
Отчёт EAC об извлечении, выполненном 16. декабря 2012, 1:02
Frank Duval  / Greatest Hits (CD1)
Дисковод: Optiarc DVD RW AD-7173A   Adapter: 6  ID: 0
Режим чтения                 : Достоверность
Использование точного потока : Да
Отключение кэша аудио        : Да
Использование указателей C2  : Нет
Коррекция смещения при чтении                     : 48
Способность читать области Lead-in и Lead-out     : Нет
Заполнение пропущенных сэмплов тишиной            : Да
Удаление блоков с тишиной в начале и конце        : Нет
При вычислениях CRC использовались нулевые сэмплы : Да
Интерфейс                                         : Установленный внешний ASPI-интерфейс
Выходной формат          : Пользовательский кодировщик
Выбранный битрейт        : 1024 kBit/s
Качество                 : Высокий
Добавление ID3-тэга      : Да
Утилита сжатия           : C:\Program Files\Exact Audio Copy\Flac\flac.exe
Дополнительные параметры : -8 -V %s
TOC извлечённого CD
     Трек |   Старт  | Длительность | Начальный сектор | Конечный сектор
    ---------------------------------------------------------------------
       1  |  0:00.00 |    2:38.38   |           0      |      11887
       2  |  2:38.38 |    4:08.33   |       11888      |      30520
       3  |  6:46.71 |    4:32.69   |       30521      |      50989
       4  | 11:19.65 |    4:14.68   |       50990      |      70107
       5  | 15:34.58 |    3:45.52   |       70108      |      87034
       6  | 19:20.35 |    8:53.09   |       87035      |     127018
       7  | 28:13.44 |    4:24.69   |      127019      |     146887
       8  | 32:38.38 |    3:54.70   |      146888      |     164507
       9  | 36:33.33 |    4:30.40   |      164508      |     184797
      10  | 41:03.73 |    4:40.13   |      184798      |     205810
      11  | 45:44.11 |    8:13.34   |      205811      |     242819
      12  | 53:57.45 |    5:08.01   |      242820      |     265920
      13  | 59:05.46 |    4:49.40   |      265921      |     287635
      14  | 63:55.11 |    4:55.13   |      287636      |     309773
      15  | 68:50.24 |   10:25.51   |      309774      |     356699
Характеристики диапазона извлечения и сообщения об ошибках
Выбранный диапазон
     Имя файла C:\Documents and Settings\Admin\Рабочий стол\Новая папка\Frank Duval  - Greatest Hits (CD1).wav
     Пиковый уровень 100.0 %
     Качество диапазона 100.0 %
     CRC теста CFCA1F30
     CRC копии CFCA1F30
     Копирование... OK
Ошибок не произошло
AccurateRip: сводка
Трек  1  нет в базе данных
Трек  2  нет в базе данных
Трек  3  нет в базе данных
Трек  4  нет в базе данных
Трек  5  нет в базе данных
Трек  6  нет в базе данных
Трек  7  нет в базе данных
Трек  8  нет в базе данных
Трек  9  нет в базе данных
Трек 10  нет в базе данных
Трек 11  нет в базе данных
Трек 12  нет в базе данных
Трек 13  нет в базе данных
Трек 14  нет в базе данных
Трек 15  нет в базе данных
Ни одного трека нет в базе AccurateRip
Конец отчёта

Отчёт auCDtectTaskManager&#58;

-----------------------
DON'T MODIFY THIS FILE
-----------------------
PERFORMER: auCDtect Task Manager, ver. 1.5.1RC4 build 1.5.1.5
Copyright (c) 2008-2010 y-soft. All rights reserved
http://y-soft.org
ANALYZER: auCDtect: CD records authenticity detector, version 0.8.2
Copyright (c) 2004 Oleg Berngardt. All rights reserved.
Copyright (c) 2004 Alexander Djourik. All rights reserved.
FILE: Frank Duval  - Greatest Hits (CD1).flac
  Size: 496235554 Hash: 107200EAF307F4E299BABF55024C77DC Accuracy: -m0
  Conclusion: CDDA 100%
  Signature: A095320B34D21221F3F1C255C8261E05047944F1

Содержимое индексной карты&#58;

REM GENRE Pop
REM DATE 2012
REM DISCID DD12940F
REM COMMENT "ExactAudioCopy v0.99pb5"
PERFORMER "Frank Duval "
TITLE "Greatest Hits (CD1)"
FILE "Frank Duval  - Greatest Hits (CD1).flac" WAVE
  TRACK 01 AUDIO
    TITLE "Ballade Pour Adeline"
    PERFORMER "Frank Duval "
    FLAGS DCP
    INDEX 01 00:00:00
  TRACK 02 AUDIO
    TITLE "Autumn Dreams"
    PERFORMER "Frank Duval "
    FLAGS DCP
    INDEX 01 02:38:38
  TRACK 03 AUDIO
    TITLE "Todesengel"
    PERFORMER "Frank Duval "
    FLAGS DCP
    INDEX 01 06:46:71
  TRACK 04 AUDIO
    TITLE "Angel Of Mine"
    PERFORMER "Frank Duval "
    FLAGS DCP
    INDEX 01 11:19:65
  TRACK 05 AUDIO
    TITLE "Song Of Theben"
    PERFORMER "Frank Duval "
    FLAGS DCP
    INDEX 01 15:34:58
  TRACK 06 AUDIO
    TITLE "Cry For Our World"
    PERFORMER "Frank Duval "
    FLAGS DCP
    INDEX 01 19:20:35
  TRACK 07 AUDIO
    TITLE "Face To Face"
    PERFORMER "Frank Duval "
    FLAGS DCP
    INDEX 01 28:13:44
  TRACK 08 AUDIO
    TITLE "If I Could Fly Away"
    PERFORMER "Frank Duval "
    FLAGS DCP
    INDEX 01 32:38:38
  TRACK 09 AUDIO
    TITLE "Give Me Your Love"
    PERFORMER "Frank Duval "
    FLAGS DCP
    INDEX 01 36:33:33
  TRACK 10 AUDIO
    TITLE "Living Like A Cry"
    PERFORMER "Frank Duval "
    FLAGS DCP
    INDEX 01 41:03:73
  TRACK 11 AUDIO
    TITLE "Lord"
    PERFORMER "Frank Duval "
    FLAGS DCP
    INDEX 01 45:44:11
  TRACK 12 AUDIO
    TITLE "Time For Lovers"
    PERFORMER "Frank Duval "
    FLAGS DCP
    INDEX 01 53:57:45
  TRACK 13 AUDIO
    TITLE "It Was Love"
    PERFORMER "Frank Duval "
    FLAGS DCP
    INDEX 01 59:05:46
  TRACK 14 AUDIO
    TITLE "Lovers Will Survive"
    PERFORMER "Frank Duval "
    FLAGS DCP
    INDEX 01 63:55:11
  TRACK 15 AUDIO
    TITLE "When You Were Mine"
    PERFORMER "Frank Duval "
    FLAGS DCP
    INDEX 01 68:50:24

CD2

Трек лист:
01. Love
02. Me To You
03. Children Of Gods
04. Life Will Go On
05. Dance On Fire (Orphee)
06. Alaya
07. Angel By My Side
08. Galaxies Zena
09. Touch My Soul
10. And At The End Of Every Street
11. Living My Way
12. Lonesome Ways
13. Far Away From Home
14. Piano Due
15. Silent Meeting
Продолжительность: 01:19:54

Отчёт ЕАС&#58;

Exact Audio Copy V0.99 prebeta 5 from 4. May 2009
Отчёт EAC об извлечении, выполненном 16. декабря 2012, 1:15
Frank Duval / Greatest Hits (CD2)
Дисковод: Optiarc DVD RW AD-7173A   Adapter: 6  ID: 0
Режим чтения                 : Достоверность
Использование точного потока : Да
Отключение кэша аудио        : Да
Использование указателей C2  : Нет
Коррекция смещения при чтении                     : 48
Способность читать области Lead-in и Lead-out     : Нет
Заполнение пропущенных сэмплов тишиной            : Да
Удаление блоков с тишиной в начале и конце        : Нет
При вычислениях CRC использовались нулевые сэмплы : Да
Интерфейс                                         : Установленный внешний ASPI-интерфейс
Выходной формат          : Пользовательский кодировщик
Выбранный битрейт        : 1024 kBit/s
Качество                 : Высокий
Добавление ID3-тэга      : Да
Утилита сжатия           : C:\Program Files\Exact Audio Copy\Flac\flac.exe
Дополнительные параметры : -8 -V %s
TOC извлечённого CD
     Трек |   Старт  | Длительность | Начальный сектор | Конечный сектор
    ---------------------------------------------------------------------
       1  |  0:00.00 |    3:51.25   |           0      |      17349
       2  |  3:51.25 |    3:07.72   |       17350      |      31446
       3  |  6:59.22 |    7:58.47   |       31447      |      67343
       4  | 14:57.69 |    4:13.73   |       67344      |      86391
       5  | 19:11.67 |    3:46.19   |       86392      |     103360
       6  | 22:58.11 |    6:01.70   |      103361      |     130505
       7  | 29:00.06 |    4:25.54   |      130506      |     150434
       8  | 33:25.60 |    5:54.32   |      150435      |     177016
       9  | 39:20.17 |    7:32.04   |      177017      |     210920
      10  | 46:52.21 |    4:01.60   |      210921      |     229055
      11  | 50:54.06 |    4:49.06   |      229056      |     250736
      12  | 55:43.12 |    6:21.49   |      250737      |     279360
      13  | 62:04.61 |    4:57.37   |      279361      |     301672
      14  | 67:02.23 |    5:22.61   |      301673      |     325883
      15  | 72:25.09 |    7:29.13   |      325884      |     359571
Характеристики диапазона извлечения и сообщения об ошибках
Выбранный диапазон
     Имя файла C:\Documents and Settings\Admin\Рабочий стол\Новая папка\Frank Duval - Greatest Hits (CD2).wav
     Пиковый уровень 100.0 %
     Качество диапазона 100.0 %
     CRC теста C895EDD7
     CRC копии C895EDD7
     Копирование... OK
Ошибок не произошло
AccurateRip: сводка
Трек  1  нет в базе данных
Трек  2  нет в базе данных
Трек  3  нет в базе данных
Трек  4  нет в базе данных
Трек  5  нет в базе данных
Трек  6  нет в базе данных
Трек  7  нет в базе данных
Трек  8  нет в базе данных
Трек  9  нет в базе данных
Трек 10  нет в базе данных
Трек 11  нет в базе данных
Трек 12  нет в базе данных
Трек 13  нет в базе данных
Трек 14  нет в базе данных
Трек 15  нет в базе данных
Ни одного трека нет в базе AccurateRip
Конец отчёта

Отчёт auCDtectTaskManager&#58;

-----------------------
DON'T MODIFY THIS FILE
-----------------------
PERFORMER: auCDtect Task Manager, ver. 1.5.1RC4 build 1.5.1.5
Copyright (c) 2008-2010 y-soft. All rights reserved
http://y-soft.org
ANALYZER: auCDtect: CD records authenticity detector, version 0.8.2
Copyright (c) 2004 Oleg Berngardt. All rights reserved.
Copyright (c) 2004 Alexander Djourik. All rights reserved.
FILE: Frank Duval - Greatest Hits (CD2).flac
  Size: 514536989 Hash: E8976B0EDCAE80C30185B836EB63FE47 Accuracy: -m0
  Conclusion: CDDA 100%
  Signature: 15704525DECC63C364941204626513BA6181A09A

Содержимое индексной карты&#58;

REM GENRE Pop
REM DATE 2012
REM DISCID BF12BA0F
REM COMMENT "ExactAudioCopy v0.99pb5"
PERFORMER "Frank Duval"
TITLE "Greatest Hits (CD2)"
FILE "Frank Duval - Greatest Hits (CD2).flac" WAVE
  TRACK 01 AUDIO
    TITLE "Love"
    PERFORMER "Frank Duval"
    FLAGS DCP
    INDEX 01 00:00:00
  TRACK 02 AUDIO
    TITLE "Me To You"
    PERFORMER "Frank Duval"
    FLAGS DCP
    INDEX 01 03:51:25
  TRACK 03 AUDIO
    TITLE "Children Of Gods"
    PERFORMER "Frank Duval"
    FLAGS DCP
    INDEX 01 06:59:22
  TRACK 04 AUDIO
    TITLE "Life Will Go On"
    PERFORMER "Frank Duval"
    FLAGS DCP
    INDEX 01 14:57:69
  TRACK 05 AUDIO
    TITLE "Dance On Fire (Orphee)"
    PERFORMER "Frank Duval"
    FLAGS DCP
    INDEX 01 19:11:67
  TRACK 06 AUDIO
    TITLE "Alaya"
    PERFORMER "Frank Duval"
    FLAGS DCP
    INDEX 01 22:58:11
  TRACK 07 AUDIO
    TITLE "Angel By My Side"
    PERFORMER "Frank Duval"
    FLAGS DCP
    INDEX 01 29:00:06
  TRACK 08 AUDIO
    TITLE "Galaxies Zena"
    PERFORMER "Frank Duval"
    FLAGS DCP
    INDEX 01 33:25:60
  TRACK 09 AUDIO
    TITLE "Touch My Soul"
    PERFORMER "Frank Duval"
    FLAGS DCP
    INDEX 01 39:20:17
  TRACK 10 AUDIO
    TITLE "And At The End Of Every Street"
    PERFORMER "Frank Duval"
    FLAGS DCP
    INDEX 01 46:52:21
  TRACK 11 AUDIO
    TITLE "Living My Way"
    PERFORMER "Frank Duval"
    FLAGS DCP
    INDEX 01 50:54:06
  TRACK 12 AUDIO
    TITLE "Lonesome Ways"
    PERFORMER "Frank Duval"
    FLAGS DCP
    INDEX 01 55:43:12
  TRACK 13 AUDIO
    TITLE "Far Away From Home"
    PERFORMER "Frank Duval"
    FLAGS DCP
    INDEX 01 62:04:61
  TRACK 14 AUDIO
    TITLE "Piano Due"
    PERFORMER "Frank Duval"
    FLAGS DCP
    INDEX 01 67:02:23
  TRACK 15 AUDIO
    TITLE "Silent Meeting"
    PERFORMER "Frank Duval"
    FLAGS DCP
    INDEX 01 72:25:09
-
Яндекс.Метрика
Рейтинг@Mail.ru