Guesch Patti - 3 альбома & 2 сингл (1992-2000) [APE|Lossless]<Pop, Pop Rock, Synth-pop>

 

Создавать темы 17-Дек-2014 11:54

-Guesch Patti - 3 альбома & 2 сингл (1992-2000)- Год: 1992-2000
Жанр: Pop, Pop Rock, Synth-pop, Chanson, Funk
Продолжительность: 03:04:13
Кодек: APE
Битрейт: Lossless-Певица, танцовщица Геш Патти (настоящее имя Патриция Параффе) родилась 19 марта 1946 года во Франции.
Геш (это детское прозвище певицы, от баскского слова малышка) Патти воспитывалась в музыкальной семье: ее отец занимал пост творческого директора в англо-французской звукозаписывающей компании Voice Of His Master-Pathe-Marconi, среди его непосредственных клиентов были Жильбер Беко, Эрик Клэптон и Нино Феррер. Мама будущей певицы руководила балетной студией, куда в 9 лет пошла Геш Патти, - и почти сразу же ей досталась крохотная роль в одном из спектаклей Парижской оперы. В 19 лет она занялась вокалом, и в составе дуэта Yves et Patricia записала два сингла на фирме Philips.
В 1987 году она начала сольную карьеру, которая увенчалась синглом "Etienne", - эта вещь попала в хит-парады 9 европейских стран, а видеоклип к ней - весьма откровенный - едва не стал причиной цензурного скандала (в странах Скандинавии он был признан "Лучшим музыкальным видео года").
-

Wake Up (Singles&#41; (1992&#41;

Издатель: EMI {173 767-2}
Страна изготовитель: Holland
Трек лист:
01. Wake Up (Single Version) [04:17]
02. Wake Up (Extended Mix) [05:17]
03. Pleurs [04:52]
Продолжительность: 00:14:26

Отчёт ЕАС&#58;

Exact Audio Copy V0.99 prebeta 3 from 28. July 2007
Отчёт EAC об извлечении, выполненном 8. апреля 2009, 18:51
Guesch Patti / Wake Up
Дисковод: Optiarc DVD RW AD-7203A   Adapter: 1  ID: 1
Режим чтения                 : Достоверность
Использование точного потока : Да
Отключение кэша аудио        : Да
Использование указателей C2  : Нет
Коррекция смещения при чтении                     : 48
Способность читать области Lead-in и Lead-out     : Нет
Заполнение пропущенных сэмплов тишиной            : Да
Удаление блоков с тишиной в начале и конце        : Нет
При вычислениях CRC использовались нулевые сэмплы : Да
Интерфейс                                         : Установленный внешний ASPI-интерфейс
Выходной формат : Внутренние WAV-операции
Формат сэмплов  : 44.100 Гц; 16 бит; стерео
TOC извлечённого CD
     Трек |   Старт  | Длительность | Начальный сектор | Конечный сектор
    ---------------------------------------------------------------------
       1  |  0:00.33 |    4:16.65   |          33      |      19297
       2  |  4:17.23 |    5:17.00   |       19298      |      43072
       3  |  9:34.23 |    4:52.07   |       43073      |      64979
Характеристики диапазона извлечения и сообщения об ошибках
Выбранный диапазон
     Имя файла E:\MP3\guesch patti audio\Guesch Patti - Wake Up.wav
     Пиковый уровень 99.9 %
     Качество диапазона 100.0 %
     CRC копии DCABB73F
     Копирование... OK
Ошибок не произошло
AccurateRip: сводка
Трек  1  нет в базе данных
Трек  2  нет в базе данных
Трек  3  нет в базе данных
Ни одного трека нет в базе AccurateRip
Конец отчёта

Отчёт auCDtect Task manager&#58;

-----------------------
DON'T MODIFY THIS FILE
-----------------------
PERFORMER: auCDtect Task Manager, ver. 1.5.1RC6 build 1.5.1.7
Copyright (c) 2008-2010 y-soft. All rights reserved
http://y-soft.org
ANALYZER: auCDtect: CD records authenticity detector, version 0.8.2
Copyright (c) 2004 Oleg Berngardt. All rights reserved.
Copyright (c) 2004 Alexander Djourik. All rights reserved.
FILE: Guesch Patti - Wake Up.ape
  Size: 92469472 Hash: 53070E96D6A8BAC98CCEDCC827CFDFFA Accuracy: -m0
  Conclusion: CDDA 100%
  Signature: A59A48B72AD56D1BCDBEA7B89456F7DADD0E1993

Amnesie (Singles&#41; (1995&#41;

Издатель: XIII Bis Records {820.999.24}
Страна изготовитель: Benelux
Трек лист:
01. Amnesie [03:44]
02. La Marquise (Remix XIII Bis) [03:19]
03. Interlude [03:55]
Продолжительность: 00:10:58

Отчёт ЕАС&#58;

Exact Audio Copy V0.99 prebeta 3 from 28. July 2007
Отчёт EAC об извлечении, выполненном 8. апреля 2009, 19:09
Guesch Patti / Amnesie
Дисковод: Optiarc DVD RW AD-7203A   Adapter: 1  ID: 1
Режим чтения                 : Достоверность
Использование точного потока : Да
Отключение кэша аудио        : Да
Использование указателей C2  : Нет
Коррекция смещения при чтении                     : 48
Способность читать области Lead-in и Lead-out     : Нет
Заполнение пропущенных сэмплов тишиной            : Да
Удаление блоков с тишиной в начале и конце        : Нет
При вычислениях CRC использовались нулевые сэмплы : Да
Интерфейс                                         : Установленный внешний ASPI-интерфейс
Выходной формат : Внутренние WAV-операции
Формат сэмплов  : 44.100 Гц; 16 бит; стерео
TOC извлечённого CD
     Трек |   Старт  | Длительность | Начальный сектор | Конечный сектор
    ---------------------------------------------------------------------
       1  |  0:00.32 |    3:43.68   |          32      |      16824
       2  |  3:44.25 |    3:19.25   |       16825      |      31774
       3  |  7:03.50 |    3:54.62   |       31775      |      49386
Характеристики диапазона извлечения и сообщения об ошибках
Выбранный диапазон
     Имя файла E:\MP3\guesch patti audio\Unknown Artist - Unknown Title.wav
     Пиковый уровень 99.2 %
     Качество диапазона 99.9 %
     CRC копии 64194B17
     Копирование... OK
Ошибок не произошло
AccurateRip: сводка
Трек  1  точное извлечение (доверие 1)  [0048CD07]
Трек  2  точное извлечение (доверие 1)  [E098A147]
Трек  3  точное извлечение (доверие 1)  [1E04C5C6]
Все треки извлечены точно
Конец отчёта

Отчёт auCDtect Task manager&#58;

-----------------------
DON'T MODIFY THIS FILE
-----------------------
PERFORMER: auCDtect Task Manager, ver. 1.5.1RC6 build 1.5.1.7
Copyright (c) 2008-2010 y-soft. All rights reserved
http://y-soft.org
ANALYZER: auCDtect: CD records authenticity detector, version 0.8.2
Copyright (c) 2004 Oleg Berngardt. All rights reserved.
Copyright (c) 2004 Alexander Djourik. All rights reserved.
FILE: Guesch Patti  - Amnesie.ape
  Size: 72614708 Hash: 25C048E3F945091F889FEE816D4F3A1C Accuracy: -m0
  Conclusion: CDDA 100%
  Signature: DAA516262354CC868A5296D5A9CC0ACA9182958E

Gobe (1992&#41;

Издатель: EMI {798 988 2}
Страна изготовитель: France
Трек лист:
01. Wake up [04:17]
02. Impossible lover [04:09]
03. Promesses [05:53]
04. Copie [05:53]
05. Gobe [04:40]
06. C'est passй [06:26]
07. Phйnomиne [03:40]
08. Les monstres [04:26]
09. Dominer [05:23]
10. Hйroпne [04:49]
11. Mйlomane [03:59]
Продолжительность: 00:53:35

Отчёт ЕАС&#58;

Exact Audio Copy V0.99 prebeta 5 from 4. May 2009
Отчёт EAC об извлечении, выполненном 16. ноября 2009, 4:02
Guesch Patti / Gobe
Дисковод: Optiarc DVD RW AD-7203A   Adapter: 1  ID: 1
Режим чтения                 : Достоверность
Использование точного потока : Да
Отключение кэша аудио        : Да
Использование указателей C2  : Нет
Коррекция смещения при чтении                     : 48
Способность читать области Lead-in и Lead-out     : Нет
Заполнение пропущенных сэмплов тишиной            : Да
Удаление блоков с тишиной в начале и конце        : Нет
При вычислениях CRC использовались нулевые сэмплы : Да
Интерфейс                                         : Установленный внешний ASPI-интерфейс
Выходной формат : Внутренние WAV-операции
Формат сэмплов  : 44.100 Гц; 16 бит; стерео
TOC извлечённого CD
     Трек |   Старт  | Длительность | Начальный сектор | Конечный сектор
    ---------------------------------------------------------------------
       1  |  0:00.32 |    4:17.28   |          32      |      19334
       2  |  4:17.60 |    4:09.10   |       19335      |      38019
       3  |  8:26.70 |    5:53.12   |       38020      |      64506
       4  | 14:20.07 |    5:52.40   |       64507      |      90946
       5  | 20:12.47 |    4:39.40   |       90947      |     111911
       6  | 24:52.12 |    6:25.33   |      111912      |     140819
       7  | 31:17.45 |    3:39.45   |      140820      |     157289
       8  | 34:57.15 |    4:25.45   |      157290      |     177209
       9  | 39:22.60 |    5:23.07   |      177210      |     201441
      10  | 44:45.67 |    4:48.40   |      201442      |     223081
      11  | 49:34.32 |    3:58.43   |      223082      |     240974
Характеристики диапазона извлечения и сообщения об ошибках
Выбранный диапазон
     Имя файла E:\LOSSLESS\guesch patti - discography\Gobe '1992\Guesch Patti - Gobe.wav
     Пиковый уровень 100.0 %
     Качество диапазона 100.0 %
     CRC копии 674501AF
     Копирование... OK
Ошибок не произошло
AccurateRip: сводка
Трек  1  точное извлечение (доверие 11)  [BEEF02C4]
Трек  2  точное извлечение (доверие 11)  [C417792A]
Трек  3  точное извлечение (доверие 11)  [1F02947E]
Трек  4  точное извлечение (доверие 10)  [A5C28724]
Трек  5  точное извлечение (доверие 11)  [C970D229]
Трек  6  точное извлечение (доверие 11)  [011D6B4E]
Трек  7  точное извлечение (доверие 11)  [DAED0175]
Трек  8  точное извлечение (доверие 11)  [EDAE6963]
Трек  9  точное извлечение (доверие 11)  [DBB049DB]
Трек 10  точное извлечение (доверие 11)  [264182D0]
Трек 11  точное извлечение (доверие 11)  [23620CBA]
Все треки извлечены точно
Конец отчёта

Отчёт auCDtect Task manager&#58;

-----------------------
DON'T MODIFY THIS FILE
-----------------------
PERFORMER: auCDtect Task Manager, ver. 1.5.1RC6 build 1.5.1.7
Copyright (c) 2008-2010 y-soft. All rights reserved
http://y-soft.org
ANALYZER: auCDtect: CD records authenticity detector, version 0.8.2
Copyright (c) 2004 Oleg Berngardt. All rights reserved.
Copyright (c) 2004 Alexander Djourik. All rights reserved.
FILE: Guesch Patti - Gobe.ape
  Size: 343282024 Hash: 2B09F394E8BD09145F52A5BDE7F1F679 Accuracy: -m0
  Conclusion: CDDA 100%
  Signature: 961C2639A06000E1AE156EA9AE3561778DB601FC

Blonde (1995&#41;

Издатель: XIII BIS Records {4807192}
Страна изготовитель: France
Трек лист:
01. Tabou [03:41]
02. Amnйsie [03:43]
03. La marquise [03:37]
04. Interlude [03:53]
05. Ma rйalitй [04:22]
06. Blonde [03:57]
07. Tapis de laine [05:37]
08. Un peu... beaucoup [03:25]
09. Doc [07:13]
10. La chinoise [03:59]
11. Jours йtranges [03:30]
Продолжительность: 00:46:57

Отчёт ЕАС&#58;

Exact Audio Copy V0.99 prebeta 5 from 4. May 2009
Отчёт EAC об извлечении, выполненном 16. ноября 2009, 3:17
Guesch Patti / Blonde
Дисковод: Optiarc DVD RW AD-7203A   Adapter: 1  ID: 1
Режим чтения                 : Достоверность
Использование точного потока : Да
Отключение кэша аудио        : Да
Использование указателей C2  : Нет
Коррекция смещения при чтении                     : 48
Способность читать области Lead-in и Lead-out     : Нет
Заполнение пропущенных сэмплов тишиной            : Да
Удаление блоков с тишиной в начале и конце        : Нет
При вычислениях CRC использовались нулевые сэмплы : Да
Интерфейс                                         : Установленный внешний ASPI-интерфейс
Выходной формат : Внутренние WAV-операции
Формат сэмплов  : 44.100 Гц; 16 бит; стерео
TOC извлечённого CD
     Трек |   Старт  | Длительность | Начальный сектор | Конечный сектор
    ---------------------------------------------------------------------
       1  |  0:00.00 |    3:41.05   |           0      |      16579
       2  |  3:41.05 |    3:43.20   |       16580      |      33324
       3  |  7:24.25 |    3:36.47   |       33325      |      49571
       4  | 11:00.72 |    3:53.03   |       49572      |      67049
       5  | 14:54.00 |    4:21.42   |       67050      |      86666
       6  | 19:15.42 |    3:56.33   |       86667      |     104399
       7  | 23:12.00 |    5:37.15   |      104400      |     129689
       8  | 28:49.15 |    3:25.02   |      129690      |     145066
       9  | 32:14.17 |    7:13.08   |      145067      |     177549
      10  | 39:27.25 |    3:58.60   |      177550      |     195459
      11  | 43:26.10 |    3:29.35   |      195460      |     211169
Характеристики диапазона извлечения и сообщения об ошибках
Выбранный диапазон
     Имя файла E:\LOSSLESS\guesch patti - discography\Blonde '1995\Guesch Patti - Blonde.wav
     Пиковый уровень 100.0 %
     Качество диапазона 99.9 %
     CRC копии 7EE56668
     Копирование... OK
Ошибок не произошло
AccurateRip: сводка
Трек  1  точное извлечение (доверие 2)  [654ACB03]
Трек  2  точное извлечение (доверие 2)  [ADF42CF2]
Трек  3  точное извлечение (доверие 2)  [3B5F1DCB]
Трек  4  точное извлечение (доверие 2)  [DAFBF771]
Трек  5  точное извлечение (доверие 2)  [0E466CF0]
Трек  6  точное извлечение (доверие 2)  [E965E460]
Трек  7  точное извлечение (доверие 2)  [421A23A6]
Трек  8  точное извлечение (доверие 2)  [C16B61BD]
Трек  9  точное извлечение (доверие 2)  [58C82484]
Трек 10  точное извлечение (доверие 2)  [48A037E6]
Трек 11  точное извлечение (доверие 2)  [3A1F1FDC]
Все треки извлечены точно
Конец отчёта

Отчёт auCDtect Task manager&#58;

-----------------------
DON'T MODIFY THIS FILE
-----------------------
PERFORMER: auCDtect Task Manager, ver. 1.5.1RC6 build 1.5.1.7
Copyright (c) 2008-2010 y-soft. All rights reserved
http://y-soft.org
ANALYZER: auCDtect: CD records authenticity detector, version 0.8.2
Copyright (c) 2004 Oleg Berngardt. All rights reserved.
Copyright (c) 2004 Alexander Djourik. All rights reserved.
FILE: Guesch Patti - Blonde.ape
  Size: 298416552 Hash: 80F3943437735C8188C0AF706C5D9703 Accuracy: -m0
  Conclusion: CDDA 99%
  Signature: A5A327E8F34A97A0D28A2438ABD05B15D9B4078D

Dernieres Nouvelles (2000&#41;

Издатель: XIII Bis Records { 154 572 }
Страна изготовитель: France
Трек лист:
01. Tu tires [06:40]
02. Parole d'honneur [05:42]
03. Metempsycose [08:59]
04. Behind me [03:56]
05. Adieu [04:03]
06. Inside [01:55]
07. Scopitone [04:57]
08. ABCdaire [04:45]
09. La cabine [05:45]
10. Les anges [04:02]
11. Beautiful [01:16]
12. Seule [06:17]
Продолжительность: 00:58:17

Отчёт ЕАС&#58;

Exact Audio Copy V0.99 prebeta 3 from 28. July 2007
Отчёт EAC об извлечении, выполненном 8. апреля 2009, 19:47
Guesch Patti / Derniere Nouvelle
Дисковод: Optiarc DVD RW AD-7203A   Adapter: 1  ID: 1
Режим чтения                 : Достоверность
Использование точного потока : Да
Отключение кэша аудио        : Да
Использование указателей C2  : Нет
Коррекция смещения при чтении                     : 48
Способность читать области Lead-in и Lead-out     : Нет
Заполнение пропущенных сэмплов тишиной            : Да
Удаление блоков с тишиной в начале и конце        : Нет
При вычислениях CRC использовались нулевые сэмплы : Да
Интерфейс                                         : Установленный внешний ASPI-интерфейс
Выходной формат : Внутренние WAV-операции
Формат сэмплов  : 44.100 Гц; 16 бит; стерео
TOC извлечённого CD
     Трек |   Старт  | Длительность | Начальный сектор | Конечный сектор
    ---------------------------------------------------------------------
       1  |  0:00.00 |    6:40.03   |           0      |      30002
       2  |  6:40.03 |    5:42.03   |       30003      |      55655
       3  | 12:22.06 |    8:59.13   |       55656      |      96093
       4  | 21:21.19 |    3:56.12   |       96094      |     113805
       5  | 25:17.31 |    4:02.71   |      113806      |     132026
       6  | 29:20.27 |    1:55.03   |      132027      |     140654
       7  | 31:15.30 |    4:56.46   |      140655      |     162900
       8  | 36:12.01 |    4:45.07   |      162901      |     184282
       9  | 40:57.08 |    5:45.30   |      184283      |     210187
      10  | 46:42.38 |    4:01.32   |      210188      |     228294
      11  | 50:43.70 |    1:15.60   |      228295      |     233979
      12  | 51:59.55 |    6:16.38   |      233980      |     262217
Характеристики диапазона извлечения и сообщения об ошибках
Выбранный диапазон
     Имя файла E:\MP3\guesch patti audio\Guesch Patti - Derniere Nouvelle.wav
     Пиковый уровень 100.0 %
     Качество диапазона 100.0 %
     CRC копии D796E566
     Копирование... OK
Ошибок не произошло
AccurateRip: сводка
Трек  1  точное извлечение (доверие 3)  [7295E158]
Трек  2  точное извлечение (доверие 3)  [9D50F71D]
Трек  3  точное извлечение (доверие 3)  [400EEFB5]
Трек  4  точное извлечение (доверие 3)  [B250F828]
Трек  5  точное извлечение (доверие 3)  [A86D9EB5]
Трек  6  точное извлечение (доверие 3)  [DFD82A4A]
Трек  7  точное извлечение (доверие 3)  [E2B6D060]
Трек  8  точное извлечение (доверие 3)  [831C8FF2]
Трек  9  точное извлечение (доверие 3)  [857802D7]
Трек 10  точное извлечение (доверие 3)  [C4D50FE6]
Трек 11  точное извлечение (доверие 3)  [49272AE4]
Трек 12  точное извлечение (доверие 3)  [F4B9F667]
Все треки извлечены точно
Конец отчёта

Отчёт auCDtect Task manager&#58;

-----------------------
DON'T MODIFY THIS FILE
-----------------------
PERFORMER: auCDtect Task Manager, ver. 1.5.1RC6 build 1.5.1.7
Copyright (c) 2008-2010 y-soft. All rights reserved
http://y-soft.org
ANALYZER: auCDtect: CD records authenticity detector, version 0.8.2
Copyright (c) 2004 Oleg Berngardt. All rights reserved.
Copyright (c) 2004 Alexander Djourik. All rights reserved.
FILE: Guesch Patti - Dernieres Nouvelles.ape
  Size: 331291320 Hash: DEDA7CCD9ACAA30E1F653C701A42EEAF Accuracy: -m0
  Conclusion: CDDA 100%
  Signature: 2E903242EAFD596E685B5597565D08B13F5A0D95
-
Яндекс.Метрика
Рейтинг@Mail.ru