D. J. Bobo - Celebration (2CD) (2002) [FLAC|Lossless]<Eurodance>

 

Создавать темы 17-Дек-2014 11:54

-D. J. Bobo - Celebration (2CD) (2002)- Год: 2002
Жанр: Eurodance
Продолжительность: 02:08:00
Кодек: FLAC
Битрейт: Lossless
Тип рипа: image+.cue-CD1 (01:11:55)
Треклист:
1. Celebration
2. Somebody Dance With Me 2002
3. Everybody (With Emilia)
4. Tell Me Why (With Gola)
5. Where Is Your Love (With No Angels)
6. Pray 2002
7. Love Of My Life (With Melanie Thornton)
8. Together (With Atc)
9. There Is A Party 2002
10. Freedom 2002
11. Love Is The Price (Spanglish Version)
12. Respect Yourself 2002
13. What A Feeling (With Irene Cara)
14. It`s My Life
15. Lonely 4 You (Dj Bobo Feat Tone)
16. Let The Dream Come True 2002
17. Around The World
18. Wonderful Day
19. Shadows Of The Night (With VSOP)

Отчёт ЕАС&#58;

Exact Audio Copy V1.0 beta 3 from 29. August 2011
Отчёт EAC об извлечении, выполненном 15. ноября 2011, 15:24
DJ Bobo / Celebration CD1
Дисковод: hp      CDDVDW TS-L633R   Adapter: 0  ID: 1
Режим чтения                 : Достоверность
Использование точного потока : Да
Отключение кэша аудио        : Да
Использование указателей C2  : Нет
Коррекция смещения при чтении                     : 6
Способность читать области Lead-in и Lead-out     : Нет
Заполнение пропущенных сэмплов тишиной            : Да
Удаление блоков с тишиной в начале и конце        : Нет
При вычислениях CRC использовались нулевые сэмплы : Да
Интерфейс                                         : Встроенный Win32-интерфейс для Win NT/2000
Выходной формат          : Пользовательский кодировщик
Выбранный битрейт        : 1024 kBit/s
Качество                 : Высокий
Добавление ID3-тега      : Нет
Утилита сжатия           : C:\Program Files\Exact Audio Copy\FLAC\FLAC.EXE
Дополнительные параметры : -V -8 -T "Date=%year%" -T "Genre=%genre%" %source%
TOC извлечённого CD
     Трек |   Старт  | Длительность | Начальный сектор | Конечный сектор
    ---------------------------------------------------------------------
       1  |  0:00.00 |    3:18.00   |           0      |      14849
       2  |  3:18.00 |    3:30.23   |       14850      |      30622
       3  |  6:48.23 |    3:37.09   |       30623      |      46906
       4  | 10:25.32 |    3:56.21   |       46907      |      64627
       5  | 14:21.53 |    4:15.11   |       64628      |      83763
       6  | 18:36.64 |    3:48.62   |       83764      |     100925
       7  | 22:25.51 |    3:57.05   |      100926      |     118705
       8  | 26:22.56 |    3:42.07   |      118706      |     135362
       9  | 30:04.63 |    4:13.00   |      135363      |     154337
      10  | 34:17.63 |    3:45.41   |      154338      |     171253
      11  | 38:03.29 |    3:32.31   |      171254      |     187184
      12  | 41:35.60 |    3:30.07   |      187185      |     202941
      13  | 45:05.67 |    3:36.01   |      202942      |     219142
      14  | 48:41.68 |    3:55.00   |      219143      |     236767
      15  | 52:36.68 |    3:37.04   |      236768      |     253046
      16  | 56:13.72 |    3:57.01   |      253047      |     270822
      17  | 60:10.73 |    3:49.56   |      270823      |     288053
      18  | 64:00.54 |    4:27.72   |      288054      |     308150
      19  | 68:28.51 |    3:26.50   |      308151      |     323650
Характеристики диапазона извлечения и сообщения об ошибках
Выбранный диапазон
     Имя файла H:\Мои Раздачи\DJ Bobo 'Celebration [CD1]' 2002\DJ Bobo - Celebration CD1.wav
     Пиковый уровень 100.0 %
     Скорость извлечения 1.7 X
     Качество диапазона 99.9 %
     CRC теста 22EB2741
     CRC копии 22EB2741
     Копирование... OK
Ошибок не произошло
AccurateRip: сводка
Трек  1  отсутствует в базе данных
Трек  2  отсутствует в базе данных
Трек  3  отсутствует в базе данных
Трек  4  отсутствует в базе данных
Трек  5  отсутствует в базе данных
Трек  6  отсутствует в базе данных
Трек  7  отсутствует в базе данных
Трек  8  отсутствует в базе данных
Трек  9  отсутствует в базе данных
Трек 10  отсутствует в базе данных
Трек 11  отсутствует в базе данных
Трек 12  отсутствует в базе данных
Трек 13  отсутствует в базе данных
Трек 14  отсутствует в базе данных
Трек 15  отсутствует в базе данных
Трек 16  отсутствует в базе данных
Трек 17  отсутствует в базе данных
Трек 18  отсутствует в базе данных
Трек 19  отсутствует в базе данных
Ни одного трека нет в базе AccurateRip
Конец отчёта

Отчёт audiocheker&#58;

AUDIOCHECKER v2.0 beta (build 457) - by Dester - [url=mailto:[email protected]][email protected][/url]
~~~~~~~~~~~~~~~~~~~~~~~~~~~~~~~~~~
Начато: четверг, 16. 05. 2013. - 9:06.36
Найдено файлов: 1
1 -===- \DJ Bobo 'Celebration 2CD' 2002\CD 1\DJ Bobo - Celebration CD1.flac
  Извлечение успешно выполнено
  Заключение: этот трек - CDDA с вероятностью 100%
  Временный файл удалён.
Завершено: четверг, 16. 05. 2013. - 9:19.56 (Время операции: 0:13.20)
-CD2 (00:56:05)
Треклист:
1. Colors of life {pure mix}
2. Take control {new version}
3. Radio ga ga {Queen dance traxx feat. D.J. Bobo}
4. Celebrate {latin version}
5. Come take my hand {the new atlantis version)
6. Love is all around {UK radio version}
7. Lies {video version}
8. Keep on dancing {new version}
9. I'll be there {single version from spain}
10. Hard to say I'm sorry {video version}
11. Nightfly
12. B&B Magamix

Отчёт ЕАС&#58;

Exact Audio Copy V1.0 beta 3 from 29. August 2011
Отчёт EAC об извлечении, выполненном 15. ноября 2011, 16:18
DJ Bobo / Celebration CD 2
Дисковод: hp      CDDVDW TS-L633R   Adapter: 0  ID: 1
Режим чтения                 : Достоверность
Использование точного потока : Да
Отключение кэша аудио        : Да
Использование указателей C2  : Нет
Коррекция смещения при чтении                     : 6
Способность читать области Lead-in и Lead-out     : Нет
Заполнение пропущенных сэмплов тишиной            : Да
Удаление блоков с тишиной в начале и конце        : Нет
При вычислениях CRC использовались нулевые сэмплы : Да
Интерфейс                                         : Встроенный Win32-интерфейс для Win NT/2000
Выходной формат          : Пользовательский кодировщик
Выбранный битрейт        : 1024 kBit/s
Качество                 : Высокий
Добавление ID3-тега      : Нет
Утилита сжатия           : C:\Program Files\Exact Audio Copy\FLAC\FLAC.EXE
Дополнительные параметры : -V -8 -T "Date=%year%" -T "Genre=%genre%" %source%
TOC извлечённого CD
     Трек |   Старт  | Длительность | Начальный сектор | Конечный сектор
    ---------------------------------------------------------------------
       1  |  0:00.00 |    3:18.30   |           0      |      14879
       2  |  3:18.30 |    3:45.32   |       14880      |      31786
       3  |  7:03.62 |    3:48.55   |       31787      |      48941
       4  | 10:52.42 |    3:11.40   |       48942      |      63306
       5  | 14:04.07 |    3:53.50   |       63307      |      80831
       6  | 17:57.57 |    3:27.25   |       80832      |      96381
       7  | 21:25.07 |    3:46.33   |       96382      |     113364
       8  | 25:11.40 |    3:32.17   |      113365      |     129281
       9  | 28:43.57 |    3:46.18   |      129282      |     146249
      10  | 32:30.00 |    3:40.25   |      146250      |     162774
      11  | 36:10.25 |    4:16.42   |      162775      |     182016
      12  | 40:26.67 |   15:38.58   |      182017      |     252424
      13  | 58:37.50 |   12:51.22   |      263825      |     321671
Характеристики диапазона извлечения и сообщения об ошибках
Выбранный диапазон
     Имя файла H:\Мои Раздачи\DJ Bobo 'Celebration' 2002\CD 2\D.J. Bobo - Celebration CD 2.wav
     Пиковый уровень 99.3 %
     Скорость извлечения 2.3 X
     Качество диапазона 100.0 %
     CRC теста 696BC1B9
     CRC копии 696BC1B9
     Копирование... OK
Ошибок не произошло
AccurateRip: сводка
Трек  1  отсутствует в базе данных
Трек  2  отсутствует в базе данных
Трек  3  отсутствует в базе данных
Трек  4  отсутствует в базе данных
Трек  5  отсутствует в базе данных
Трек  6  отсутствует в базе данных
Трек  7  отсутствует в базе данных
Трек  8  отсутствует в базе данных
Трек  9  отсутствует в базе данных
Трек 10  отсутствует в базе данных
Трек 11  отсутствует в базе данных
Трек 12  отсутствует в базе данных
Ни одного трека нет в базе AccurateRip
Конец отчёта

Отчёт audiocheker&#58;

AUDIOCHECKER v2.0 beta (build 457) - by Dester - [url=mailto:[email protected]][email protected][/url]
~~~~~~~~~~~~~~~~~~~~~~~~~~~~~~~~~~
Начато: четверг, 16. 05. 2013. - 9:26.16
Найдено файлов: 1
1 -===- \DJ Bobo 'Celebration 2CD' 2002\CD 2\DJ Bobo - Celebration CD 2.flac
  Извлечение успешно выполнено
  Заключение: этот трек - CDDA с вероятностью 100%
  Временный файл удалён.
Завершено: четверг, 16. 05. 2013. - 9:37.00 (Время операции: 0:10.44)
-
Яндекс.Метрика
Рейтинг@Mail.ru