Modern Talking - Let's Talk About Love - The 2nd Album (1985) [APE|Lossless]<Electronic>

 

Создавать темы 17-Дек-2014 11:52

-Modern Talking - Let's Talk About Love - The 2nd Album (1985)- Год: 1985
Жанр: Electronic
Продолжительность: 00:38:55
Кодек: APE
Битрейт: Lossless
Треклист:
01. Cheri Cheri lady (3:51)
02. With a little love (3:39)
03. Wild wild water (4:23)
04. You're the lady of my heart (3:24)
05. Just like an angel (3:20)
06. Heaven will know (4:07)
07. Love don't live here anymore (4:27)
08. Why did you do it just tonight (4:28)
09. Don't give up (3:24)
10. Let's talk about love (3:54)

Отчёт ЕАС&#58;

EAC extraction logfile from 17. October 2002, 20:06 for CD
Modern Talking / The 2nd Album - Lets talk about Love
Used drive  : ASUS    DVD-ROM E616   Adapter: 2  ID: 0
Read mode   : Secure with NO C2, accurate stream, disable cache
Combined read/write offset correction : 0
Overread into Lead-In and Lead-Out : No
Used output format : Internal WAV Routines
                     44.100 Hz; 16 Bit; Stereo
Other options      :
    Fill up missing offset samples with silence : Yes
    Delete leading and trailing silent blocks : No
    Installed external ASPI interface
Range status and errors
Selected range
   Filename X:\Temp\EAC\Modern_Talking_The_2_nd_Lets_talk_about_love.wav
   Peak level 81.0 %
   Range quality 100.0 %
   CRC E5B6D37E
   Copy OK
No errors occured
End of status report

Отчёт auCDtect Task manager&#58;

-----------------------
DON'T MODIFY THIS FILE
-----------------------
PERFORMER: auCDtect Task Manager, ver. 1.6.0 RC1 build 1.6.0.1
Copyright (c) 2008-2010 y-soft. All rights reserved
http://y-soft.org
ANALYZER: auCDtect: CD records authenticity detector, version 0.8.2
Copyright (c) 2004 Oleg Berngardt. All rights reserved.
Copyright (c) 2004 Alexander Djourik. All rights reserved.
FILE: Modern_Talking_The_2_nd_Lets_talk_about_love.ape
  Size: 235222980 Hash: 14D13F11E6126EB64737F5293C71149B Accuracy: -m0
  Conclusion: MPEG 95%
  Signature: 3E4CF071EAC1FEFBC2018117DF315A148B114410

Содержание индексной карты (.CUE&#41;

PERFORMER "Modern Talking"
TITLE "The 2nd Album - Lets talk about Love"
FILE "Modern_Talking_The_2_nd_Lets_talk_about_love.wav" WAVE
  TRACK 01 AUDIO
    TITLE "Cheri Cheri lady"
    PERFORMER "Modern Talking"
    INDEX 00 00:00:00
    INDEX 01 00:00:33
  TRACK 02 AUDIO
    TITLE "With a little love"
    PERFORMER "Modern Talking"
    INDEX 00 03:46:58
    INDEX 01 03:51:65
  TRACK 03 AUDIO
    TITLE "Wild wild water"
    PERFORMER "Modern Talking"
    INDEX 00 07:25:08
    INDEX 01 07:30:30
  TRACK 04 AUDIO
    TITLE "You're the lady of my heart"
    PERFORMER "Modern Talking"
    INDEX 00 11:48:58
    INDEX 01 11:53:15
  TRACK 05 AUDIO
    TITLE "Just like an angel"
    PERFORMER "Modern Talking"
    INDEX 00 15:12:08
    INDEX 01 15:17:08
  TRACK 06 AUDIO
    TITLE "Heaven will know"
    PERFORMER "Modern Talking"
    INDEX 00 18:31:58
    INDEX 01 18:36:73
  TRACK 07 AUDIO
    TITLE "Love don't live here anymore"
    PERFORMER "Modern Talking"
    INDEX 00 22:38:33
    INDEX 01 22:43:48
  TRACK 08 AUDIO
    TITLE "Why did you do it just tonight"
    PERFORMER "Modern Talking"
    INDEX 00 27:05:08
    INDEX 01 27:10:18
  TRACK 09 AUDIO
    TITLE "Don't give up"
    PERFORMER "Modern Talking"
    INDEX 00 31:33:08
    INDEX 01 31:37:73
  TRACK 10 AUDIO
    TITLE "Let's talk about love"
    PERFORMER "Modern Talking"
    INDEX 00 34:57:33
    INDEX 01 35:02:10
-
Яндекс.Метрика
Рейтинг@Mail.ru