Samira - The Rain (Maxi-CD) (1996) [APE|Lossless]<Eurodance>

 

Создавать темы 17-Дек-2014 11:52

-Samira - The Rain (Maxi-CD) (1996)- Год: 1996
Жанр: Eurodance
Продолжительность: 00:28:47
Кодек: APE
Битрейт: Lossless
Трек лист:
01. The Rain (Radio Swing Mix) (3:42)
02. The Rain (Radio Groove Mix) (3:55)
03. The Rain (Radio Soul Mix) (3:53)
04. The Rain (Dance Swing Mix) (6:14)
05. The Rain (Dance Soul Mix) (6:52)
06. It's Still Raining (4:06)

Отчёт ЕАС&#58;

Exact Audio Copy V0.99 prebeta 4 from 23. January 2008
Отчёт EAC об извлечении, выполненном 31. марта 2009, 17:01
Samira / The Rain
Дисковод: PIONEER DVD-RW  DVR-112   Adapter: 0  ID: 1
Режим чтения                 : Достоверность
Использование точного потока : Да
Отключение кэша аудио        : Да
Использование указателей C2  : Нет
Коррекция смещения при чтении                     : 48
Способность читать области Lead-in и Lead-out     : Нет
Заполнение пропущенных сэмплов тишиной            : Да
Удаление блоков с тишиной в начале и конце        : Нет
При вычислениях CRC использовались нулевые сэмплы : Да
Интерфейс                                         : Установленный внешний ASPI-интерфейс
Выходной формат : Внутренние WAV-операции
Формат сэмплов  : 44.100 Гц; 16 бит; стерео
TOC извлечённого CD
     Трек |   Старт  | Длительность | Начальный сектор | Конечный сектор
    ---------------------------------------------------------------------
       1  |  0:00.00 |    3:42.51   |           0      |      16700
       2  |  3:42.51 |    3:56.01   |       16701      |      34401
       3  |  7:38.52 |    3:54.07   |       34402      |      51958
       4  | 11:32.59 |    6:15.03   |       51959      |      80086
       5  | 17:47.62 |    6:52.37   |       80087      |     111023
       6  | 24:40.24 |    4:06.55   |      111024      |     129528
Характеристики диапазона извлечения и сообщения об ошибках
Выбранный диапазон
     Имя файла M:\Torrents (for Upload)\Samira\Samira 1996 - The Rain (MAXI-CD)\Samira - The Rain.wav
     Пиковый уровень 100.0 %
     Качество диапазона 99.9 %
     CRC копии 67D255D7
     Копирование... OK
Ошибок не произошло
AccurateRip: сводка
Трек  1  нет в базе данных
Трек  2  нет в базе данных
Трек  3  нет в базе данных
Трек  4  нет в базе данных
Трек  5  нет в базе данных
Трек  6  нет в базе данных
Ни одного трека нет в базе AccurateRip
Конец отчёта

Отчёт auCDtect Task manager&#58;

-----------------------
DON'T MODIFY THIS FILE
-----------------------
PERFORMER: auCDtect Task Manager, ver. 1.5.1RC6 build 1.5.1.7
Copyright (c) 2008-2010 y-soft. All rights reserved
http://y-soft.org
ANALYZER: auCDtect: CD records authenticity detector, version 0.8.2
Copyright (c) 2004 Oleg Berngardt. All rights reserved.
Copyright (c) 2004 Alexander Djourik. All rights reserved.
FILE: Samira - The Rain.ape
  Size: 206268996 Hash: 6F0CD279669D3B31BD48589B1A1909E2 Accuracy: -m0
  Conclusion: CDDA 99%
  Signature: FC1D5DBD96687CF21432B28FBA3F54BFD1C3EFED
-
Яндекс.Метрика
Рейтинг@Mail.ru