[ Сегодня на трекере фрилич! Идет свободное скачивание без начисления Download ]

Animal X - Level 2 (2001) [FLAC|Lossless]<Eurohouse, Freestyle>

 

Создавать темы 17-Дек-2014 11:52

-Animal X - Level 2 (2001)- Год: 2001
Жанр: Eurohouse, Freestyle
Лейбл: Nova Music
Каталог #: NM 154-2
Продолжительность: 00:48:02
Кодек: FLAC
Тип рипа: tracks + .cue
Битрейт: Lossless
Треклист:
01. Pentru ea (4:33)
02. Lumea Viselor (4:03)
03. 981 (3:32)
04. Robotii Milenoului III (3:29)
05. Fara tine (3:39)
06. Vierme, Soparla, Hyena (free style version) (3:25)
07. Pentru ea (extended mix) (7:36)
08. Lumea Viselor (extended mix) (6:36)
09. Vierme, Soparla, Hyena (extended mix) (4:23)
10. Fara tine (extended mix by DJ Roly) (6:44)

Отчёт ЕАС&#58;

Exact Audio Copy V1.0 beta 3 from 29. August 2011
EAC extraction logfile from 10. February 2014, 10:52
Animal X / Level 2
Used drive  : HL-DT-STDVDRAM GSA-4167B   Adapter: 1  ID: 0
Read mode               : Secure
Utilize accurate stream : Yes
Defeat audio cache      : Yes
Make use of C2 pointers : No
Read offset correction                      : 667
Overread into Lead-In and Lead-Out          : No
Fill up missing offset samples with silence : Yes
Delete leading and trailing silent blocks   : No
Null samples used in CRC calculations       : Yes
Used interface                              : Native Win32 interface for Win NT & 2000
Gap handling                                : Appended to previous track
Used output format              : User Defined Encoder
Selected bitrate                : 1024 kBit/s
Quality                         : High
Add ID3 tag                     : No
Command line compressor         : C:\Program Files\Exact Audio Copy\Flac\flac.exe
Additional command line options : -8 -V -T "ARTIST=%artist%" -T "TITLE=%title%" -T "ALBUM=%albumtitle%" -T "DATE=%year%" -T "TRACKNUMBER=%tracknr%" -T "GENRE=%genre%" -T "PERFORMER=%albuminterpret%" -T "COMPOSER=%composer%" %haslyrics%--tag-from-file=LYRICS="%lyricsfile%"%haslyrics% -T "ALBUMARTIST=%albumartist%" -T "DISCNUMBER=%cdnumber%" -T "TOTALDISCS=%totalcds%" -T "TOTALTRACKS=%numtracks%" -T "COMMENT=http://music-torrents.ro" %source% -o %dest%
TOC of the extracted CD
     Track |   Start  |  Length  | Start sector | End sector
    ---------------------------------------------------------
        1  |  0:00.00 |  4:33.18 |         0    |    20492
        2  |  4:33.18 |  4:03.29 |     20493    |    38746
        3  |  8:36.47 |  3:31.67 |     38747    |    54638
        4  | 12:08.39 |  3:29.09 |     54639    |    70322
        5  | 15:37.48 |  3:39.26 |     70323    |    86773
        6  | 19:16.74 |  3:25.10 |     86774    |   102158
        7  | 22:42.09 |  7:35.71 |    102159    |   136354
        8  | 30:18.05 |  6:36.13 |    136355    |   166067
        9  | 36:54.18 |  4:23.13 |    166068    |   185805
       10  | 41:17.31 |  6:44.15 |    185806    |   216120
       11  | 50:33.46 | 18:33.36 |    227521    |   311031
Track  1
     Filename C:\Documents and Settings\Funky Record\My Documents\Animal X - Level 2-CD-FLAC-2001-FunkyRecords\01. Pentru ea.wav
     Pre-gap length  0:00:02.00
     Peak level 98.8 %
     Extraction speed 3.6 X
     Track quality 99.9 %
     Test CRC 54A8AB8A
     Copy CRC 54A8AB8A
     Accurately ripped (confidence 1)  [57520F95]  (AR v2)
     Copy OK
Track  2
     Filename C:\Documents and Settings\Funky Record\My Documents\Animal X - Level 2-CD-FLAC-2001-FunkyRecords\02. Lumea Viselor.wav
     Pre-gap length  0:00:02.00
     Peak level 98.8 %
     Extraction speed 4.8 X
     Track quality 100.0 %
     Test CRC D3C9A5D4
     Copy CRC D3C9A5D4
     Accurately ripped (confidence 1)  [1FA41B07]  (AR v2)
     Copy OK
Track  3
     Filename C:\Documents and Settings\Funky Record\My Documents\Animal X - Level 2-CD-FLAC-2001-FunkyRecords\03. 981.wav
     Pre-gap length  0:00:02.00
     Peak level 98.8 %
     Extraction speed 5.1 X
     Track quality 100.0 %
     Test CRC 67200A04
     Copy CRC 67200A04
     Accurately ripped (confidence 1)  [71A45CFB]  (AR v2)
     Copy OK
Track  4
     Filename C:\Documents and Settings\Funky Record\My Documents\Animal X - Level 2-CD-FLAC-2001-FunkyRecords\04. Robotii Milenoului III.wav
     Pre-gap length  0:00:02.00
     Peak level 98.8 %
     Extraction speed 4.2 X
     Track quality 99.9 %
     Test CRC 5F5E974E
     Copy CRC 5F5E974E
     Accurately ripped (confidence 1)  [2F233967]  (AR v2)
     Copy OK
Track  5
     Filename C:\Documents and Settings\Funky Record\My Documents\Animal X - Level 2-CD-FLAC-2001-FunkyRecords\05. Fara tine.wav
     Pre-gap length  0:00:02.00
     Peak level 98.8 %
     Extraction speed 5.6 X
     Track quality 100.0 %
     Test CRC 733092B2
     Copy CRC 733092B2
     Accurately ripped (confidence 1)  [B9407B93]  (AR v2)
     Copy OK
Track  6
     Filename C:\Documents and Settings\Funky Record\My Documents\Animal X - Level 2-CD-FLAC-2001-FunkyRecords\06. Vierme, Soparla, Hyena (free style version).wav
     Pre-gap length  0:00:02.00
     Peak level 98.8 %
     Extraction speed 5.8 X
     Track quality 100.0 %
     Test CRC 53CCED04
     Copy CRC 53CCED04
     Accurately ripped (confidence 1)  [C6E22050]  (AR v2)
     Copy OK
Track  7
     Filename C:\Documents and Settings\Funky Record\My Documents\Animal X - Level 2-CD-FLAC-2001-FunkyRecords\07. Pentru ea (extended mix).wav
     Pre-gap length  0:00:02.00
     Peak level 98.8 %
     Extraction speed 6.8 X
     Track quality 100.0 %
     Test CRC 4387C27B
     Copy CRC 4387C27B
     Accurately ripped (confidence 1)  [94CE5499]  (AR v2)
     Copy OK
Track  8
     Filename C:\Documents and Settings\Funky Record\My Documents\Animal X - Level 2-CD-FLAC-2001-FunkyRecords\08. Lumea Viselor (extended mix).wav
     Pre-gap length  0:00:02.00
     Peak level 98.8 %
     Extraction speed 7.2 X
     Track quality 100.0 %
     Test CRC DE33EF0C
     Copy CRC DE33EF0C
     Accurately ripped (confidence 1)  [CB465261]  (AR v2)
     Copy OK
Track  9
     Filename C:\Documents and Settings\Funky Record\My Documents\Animal X - Level 2-CD-FLAC-2001-FunkyRecords\09. Vierme, Soparla, Hyena (extended mix).wav
     Pre-gap length  0:00:02.00
     Peak level 98.8 %
     Extraction speed 7.1 X
     Track quality 100.0 %
     Test CRC 016C395D
     Copy CRC 016C395D
     Accurately ripped (confidence 1)  [B8228963]  (AR v2)
     Copy OK
Track 10
     Filename C:\Documents and Settings\Funky Record\My Documents\Animal X - Level 2-CD-FLAC-2001-FunkyRecords\10. Fara tine (extended mix by DJ Roly).wav
     Pre-gap length  0:00:02.00
     Peak level 98.8 %
     Extraction speed 7.9 X
     Track quality 100.0 %
     Test CRC 4E43DACE
     Copy CRC 4E43DACE
     Accurately ripped (confidence 1)  [9CC6146C]  (AR v2)
     Copy OK
All tracks accurately ripped
No errors occurred
End of status report
---- CUETools DB Plugin V2.1.3
[CTDB TOCID: 9e_ZMm0rD2sGVkzCT01ouhMcHfI-] found, Submit result: 9e_ZMm0rD2sGVkzCT01ouhMcHfI- has been confirmed
[34b1e1bf] (1/1) Accurately ripped
==== Log checksum AC7B9F39D749A816AEB271B5BAF08F6615C0836E1BB43B93C1A30CD6E039895C ====

Отчёт auCDtect Task manager&#58;

-----------------------
DON'T MODIFY THIS FILE
-----------------------
PERFORMER: auCDtect Task Manager, ver. 1.6.0 RC1 build 1.6.0.1
Copyright (c) 2008-2010 y-soft. All rights reserved
http://y-soft.org
ANALYZER: auCDtect: CD records authenticity detector, version 0.8.2
Copyright (c) 2004 Oleg Berngardt. All rights reserved.
Copyright (c) 2004 Alexander Djourik. All rights reserved.
FILE: 06. Vierme, Soparla, Hyena (free style version).flac
  Size: 25621466 Hash: C06AF3AC9FCB2EE5B7F68BF4B4167CC1 Accuracy: -m0
  Conclusion: CDDA 99%
  Signature: 1E1B8F92B018CECB11F9BFE99DE511745E1EB1E3
FILE: 05. Fara tine.flac
  Size: 26889540 Hash: B904D8D8DDF56276DAD0369E20A69D7E Accuracy: -m0
  Conclusion: CDDA 100%
  Signature: B05F01FB8E70CFD817973E8D803BE453A38A7D81
FILE: 04. Robotii Milenoului III.flac
  Size: 26595807 Hash: 21CF09A7BD112AFB949E11175F2DAF3A Accuracy: -m0
  Conclusion: CDDA 100%
  Signature: 165593C42FABD110CB46D80D1B0D6D5C2BAAFDA4
FILE: 03. 981.flac
  Size: 24662485 Hash: D04FA733392ED75FEEA1C64902AA7B7B Accuracy: -m0
  Conclusion: CDDA 100%
  Signature: B94B447FDE8D88EF901C71C3B6ABE308537B632A
FILE: 02. Lumea Viselor.flac
  Size: 28686624 Hash: 0BC824A309E957DB26C635BAF48EFB2E Accuracy: -m0
  Conclusion: CDDA 100%
  Signature: 2B34F070252C6CBBA944A3804E1EEE9A2FD9AB68
FILE: 01. Pentru ea.flac
  Size: 32352792 Hash: 19A3E99975CC83F1A3A8C043A88F9DC4 Accuracy: -m0
  Conclusion: CDDA 99%
  Signature: D16F9DDEBE03511FD60B4B742B185ADAB42C6BBA
FILE: 10. Fara tine (extended mix by DJ Roly).flac
  Size: 47795740 Hash: E72E82E0DB305715FDA176FE0C0A91C0 Accuracy: -m0
  Conclusion: CDDA 100%
  Signature: C50964EF24D019DF2A8763091CE79B574AC1DF2D
FILE: 09. Vierme, Soparla, Hyena (extended mix).flac
  Size: 30812536 Hash: 508B186C677E87DEFC52D6381AA08529 Accuracy: -m0
  Conclusion: CDDA 100%
  Signature: 2E6A434473EEA91AD58F53CC1C4C856F589E34DA
FILE: 08. Lumea Viselor (extended mix).flac
  Size: 43378281 Hash: A4D1D7CC864F2E239957FCB04CE8CE6B Accuracy: -m0
  Conclusion: CDDA 100%
  Signature: D4EBBBFFC0B132BF2B20439ED9D1FDB680B28F77
FILE: 07. Pentru ea (extended mix).flac
  Size: 48333766 Hash: D64735C800548873B9C37850CDC06C29 Accuracy: -m0
  Conclusion: CDDA 100%
  Signature: FEBAF956CE227AA5113F4F35429D3C0862563DFA

Содержание индексной карты (.CUE&#41;

REM GENRE Dance
REM DATE 2001
REM DISCID 9110330B
PERFORMER "Animal X"
TITLE "Level 2"
FILE "01. Pentru ea.flac" WAVE
  TRACK 01 AUDIO
    TITLE "Pentru ea"
    PERFORMER "Animal X"
    INDEX 01 00:00:00
FILE "02. Lumea Viselor.flac" WAVE
  TRACK 02 AUDIO
    TITLE "Lumea Viselor"
    PERFORMER "Animal X"
    INDEX 01 00:00:00
FILE "03. 981.flac" WAVE
  TRACK 03 AUDIO
    TITLE 981
    PERFORMER "Animal X"
    INDEX 01 00:00:00
FILE "04. Robotii Milenoului III.flac" WAVE
  TRACK 04 AUDIO
    TITLE "Robotii Milenoului III"
    PERFORMER "Animal X"
    INDEX 01 00:00:00
FILE "05. Fara tine.flac" WAVE
  TRACK 05 AUDIO
    TITLE "Fara tine"
    PERFORMER "Animal X"
    INDEX 01 00:00:00
FILE "06. Vierme, Soparla, Hyena (free style version).flac" WAVE
  TRACK 06 AUDIO
    TITLE "Vierme, Soparla, Hyena (free style version)"
    PERFORMER "Animal X"
    INDEX 01 00:00:00
FILE "07. Pentru ea (extended mix).flac" WAVE
  TRACK 07 AUDIO
    TITLE "Pentru ea (extended mix)"
    PERFORMER "Animal X"
    INDEX 01 00:00:00
FILE "08. Lumea Viselor (extended mix).flac" WAVE
  TRACK 08 AUDIO
    TITLE "Lumea Viselor (extended mix)"
    PERFORMER "Animal X"
    INDEX 01 00:00:00
FILE "09. Vierme, Soparla, Hyena (extended mix).flac" WAVE
  TRACK 09 AUDIO
    TITLE "Vierme, Soparla, Hyena (extended mix)"
    PERFORMER "Animal X"
    INDEX 01 00:00:00
FILE "10. Fara tine (extended mix by DJ Roly).flac" WAVE
  TRACK 10 AUDIO
    TITLE "Fara tine (extended mix by DJ Roly)"
    PERFORMER "Animal X"
    INDEX 01 00:00:00
-
Яндекс.Метрика
Рейтинг@Mail.ru