Secret Service - The Lost Box (2012) [WavPack|Lossless]<Euro Disco, Synthpop>

 

Создавать темы 17-Дек-2014 11:52

-Secret Service - The Lost Box (2012)- Год: 2012
Жанр: Euro Disco, Synthpop
Продолжительность: 00:39:45
Лейбл: ХТС Productions AB
Каталожный №: XTC A 2012-1
Сканы: Комплект
Кодек: WavPack (tracks+.cue)
Битрейт: Lossless
Треклист:
01. Satellites [03:44]
02. If I Do [03:31]
03. Different [03:32]
04. Eyes Are Talking [04:00]
05. I Want You [03:47]
06. The Go-Between [04:04]
07. Upside Down [04:10]
08. Woman And Man [03:20]
09. Always a Fool [02:56]
10. It's Not Over [03:13]
11. Someone Can Open Your Heart [03:22]-

Содержимое индексной карты (.cue&#41;&#58;

REM GENRE Pop
REM DATE 2012
REM DISCID 9009510B
REM COMMENT "ExactAudioCopy v0.99pb5"
PERFORMER "The Lost Box (2012 ХТС Productions AB, XTC A 2012-1)"
TITLE "The Lost Box (ХТС Productions AB, XTC A 2012-1)"
FILE "01 - Satellites.wv" WAVE
  TRACK 01 AUDIO
    TITLE "Satellites"
    PERFORMER "The Lost Box (2012 ХТС Productions AB, XTC A 2012-1)"
    FLAGS DCP
    INDEX 01 00:00:00
FILE "02 - If I Do.wv" WAVE
  TRACK 02 AUDIO
    TITLE "If I Do"
    PERFORMER "The Lost Box (2012 ХТС Productions AB, XTC A 2012-1)"
    FLAGS DCP
    INDEX 01 00:00:00
FILE "03 - Different.wv" WAVE
  TRACK 03 AUDIO
    TITLE "Different"
    PERFORMER "The Lost Box (2012 ХТС Productions AB, XTC A 2012-1)"
    FLAGS DCP
    INDEX 01 00:00:00
FILE "04 - Eyes Are Talking.wv" WAVE
  TRACK 04 AUDIO
    TITLE "Eyes Are Talking"
    PERFORMER "The Lost Box (2012 ХТС Productions AB, XTC A 2012-1)"
    FLAGS DCP
    INDEX 01 00:00:00
FILE "05 - I Want You.wv" WAVE
  TRACK 05 AUDIO
    TITLE "I Want You"
    PERFORMER "The Lost Box (2012 ХТС Productions AB, XTC A 2012-1)"
    FLAGS DCP
    INDEX 01 00:00:00
FILE "06 - The Go-Between.wv" WAVE
  TRACK 06 AUDIO
    TITLE "The Go-Between"
    PERFORMER "The Lost Box (2012 ХТС Productions AB, XTC A 2012-1)"
    FLAGS DCP
    INDEX 01 00:00:00
FILE "07 - Upside Down.wv" WAVE
  TRACK 07 AUDIO
    TITLE "Upside Down"
    PERFORMER "The Lost Box (2012 ХТС Productions AB, XTC A 2012-1)"
    FLAGS DCP
    INDEX 01 00:00:00
FILE "08 - Woman And Man.wv" WAVE
  TRACK 08 AUDIO
    TITLE "Woman And Man"
    PERFORMER "The Lost Box (2012 ХТС Productions AB, XTC A 2012-1)"
    FLAGS DCP
    INDEX 01 00:00:00
FILE "09 - Always a Fool.wv" WAVE
  TRACK 09 AUDIO
    TITLE "Always a Fool"
    PERFORMER "The Lost Box (2012 ХТС Productions AB, XTC A 2012-1)"
    FLAGS DCP
    INDEX 01 00:00:00
FILE "10 - It's Not Over.wv" WAVE
  TRACK 10 AUDIO
    TITLE "It's Not Over"
    PERFORMER "The Lost Box (2012 ХТС Productions AB, XTC A 2012-1)"
    FLAGS DCP
    INDEX 01 00:00:00
FILE "11 - Someone Can Open Your Heart.wv" WAVE
  TRACK 11 AUDIO
    TITLE "Someone Can Open Your Heart"
    PERFORMER "The Lost Box (2012 ХТС Productions AB, XTC A 2012-1)"
    FLAGS DCP
    INDEX 01 00:00:00

Отчёт ЕАС&#58;

Exact Audio Copy V0.99 prebeta 5 from 4. May 2009
Отчёт EAC об извлечении, выполненном 18. июля 2012, 23:08
The Lost Box (2012 ХТС Productions AB, XTC A 2012-1) / The Lost Box (ХТС Productions AB, XTC A 2012-1)
Дисковод: PIONEER DVD-RW  DVR-115D   Adapter: 1  ID: 0
Режим чтения                 : Достоверность
Использование точного потока : Да
Отключение кэша аудио        : Да
Использование указателей C2  : Нет
Коррекция смещения при чтении                     : 48
Способность читать области Lead-in и Lead-out     : Нет
Заполнение пропущенных сэмплов тишиной            : Да
Удаление блоков с тишиной в начале и конце        : Нет
При вычислениях CRC использовались нулевые сэмплы : Да
Интерфейс                                         : Установленный внешний ASPI-интерфейс
Обработка зазоров                                 : Добавлено к предыдущему треку
Выходной формат : Внутренние WAV-операции
Формат сэмплов  : 44.100 Гц; 16 бит; стерео
TOC извлечённого CD
     Трек |   Старт  | Длительность | Начальный сектор | Конечный сектор
    ---------------------------------------------------------------------
       1  |  0:00.00 |    3:44.53   |           0      |      16852
       2  |  3:44.53 |    3:31.55   |       16853      |      32732
       3  |  7:16.33 |    3:32.55   |       32733      |      48687
       4  | 10:49.13 |    4:00.34   |       48688      |      66721
       5  | 14:49.47 |    3:47.45   |       66722      |      83791
       6  | 18:37.17 |    4:04.35   |       83792      |     102126
       7  | 22:41.52 |    4:10.62   |      102127      |     120938
       8  | 26:52.39 |    3:20.37   |      120939      |     135975
       9  | 30:13.01 |    2:56.31   |      135976      |     149206
      10  | 33:09.32 |    3:13.09   |      149207      |     163690
      11  | 36:22.41 |    3:22.58   |      163691      |     178898
Трек  1
     Имя файла C:\!\Secret Service - The Lost Box (2012 ХТС Productions AB, XTC A 2012-1)\01 - Satellites.wav
     Длина предзазора  0:00:02.00
     Пиковый уровень 96.6 %
     Качество трека 100.0 %
     CRC теста 55CD1232
     CRC копии 55CD1232
     Копирование... OK
Трек  2
     Имя файла C:\!\Secret Service - The Lost Box (2012 ХТС Productions AB, XTC A 2012-1)\02 - If I Do.wav
     Пиковый уровень 98.2 %
     Качество трека 100.0 %
     CRC теста F0EC3BE4
     CRC копии F0EC3BE4
     Копирование... OK
Трек  3
     Имя файла C:\!\Secret Service - The Lost Box (2012 ХТС Productions AB, XTC A 2012-1)\03 - Different.wav
     Пиковый уровень 96.6 %
     Качество трека 100.0 %
     CRC теста 62A6288E
     CRC копии 62A6288E
     Копирование... OK
Трек  4
     Имя файла C:\!\Secret Service - The Lost Box (2012 ХТС Productions AB, XTC A 2012-1)\04 - Eyes Are Talking.wav
     Пиковый уровень 96.6 %
     Качество трека 99.9 %
     CRC теста C2A95454
     CRC копии C2A95454
     Копирование... OK
Трек  5
     Имя файла C:\!\Secret Service - The Lost Box (2012 ХТС Productions AB, XTC A 2012-1)\05 - I Want You.wav
     Пиковый уровень 97.9 %
     Качество трека 100.0 %
     CRC теста FB18366B
     CRC копии FB18366B
     Копирование... OK
Трек  6
     Имя файла C:\!\Secret Service - The Lost Box (2012 ХТС Productions AB, XTC A 2012-1)\06 - The Go-Between.wav
     Пиковый уровень 96.6 %
     Качество трека 100.0 %
     CRC теста C2FF1E66
     CRC копии C2FF1E66
     Копирование... OK
Трек  7
     Имя файла C:\!\Secret Service - The Lost Box (2012 ХТС Productions AB, XTC A 2012-1)\07 - Upside Down.wav
     Пиковый уровень 96.6 %
     Качество трека 100.0 %
     CRC теста E486D799
     CRC копии E486D799
     Копирование... OK
Трек  8
     Имя файла C:\!\Secret Service - The Lost Box (2012 ХТС Productions AB, XTC A 2012-1)\08 - Woman And Man.wav
     Пиковый уровень 96.6 %
     Качество трека 100.0 %
     CRC теста 7230231D
     CRC копии 7230231D
     Копирование... OK
Трек  9
     Имя файла C:\!\Secret Service - The Lost Box (2012 ХТС Productions AB, XTC A 2012-1)\09 - Always a Fool.wav
     Пиковый уровень 96.6 %
     Качество трека 100.0 %
     CRC теста 4179EAAD
     CRC копии 4179EAAD
     Копирование... OK
Трек 10
     Имя файла C:\!\Secret Service - The Lost Box (2012 ХТС Productions AB, XTC A 2012-1)\10 - It's Not Over.wav
     Пиковый уровень 93.3 %
     Качество трека 100.0 %
     CRC теста C5DF713C
     CRC копии C5DF713C
     Копирование... OK
Трек 11
     Имя файла C:\!\Secret Service - The Lost Box (2012 ХТС Productions AB, XTC A 2012-1)\11 - Someone Can Open Your Heart.wav
     Пиковый уровень 93.3 %
     Качество трека 100.0 %
     CRC теста ED8FC7D3
     CRC копии ED8FC7D3
     Копирование... OK
Ошибок не произошло
Конец отчёта

Отчёт auCDtect Task Manager&#58;

-----------------------
DON'T MODIFY THIS FILE
-----------------------
PERFORMER: auCDtect Task Manager, ver. 1.5.1RC3 build 1.5.1.4
Copyright (c) 2008-2010 y-soft. All rights reserved
http://y-soft.org
ANALYZER: auCDtect: CD records authenticity detector, version 0.8.2
Copyright (c) 2004 Oleg Berngardt. All rights reserved.
Copyright (c) 2004 Alexander Djourik. All rights reserved.
FILE: 11 - Someone Can Open Your Heart.wv
  Size: 26836766 Hash: C865DB7A4696E51CB7A0BFAFCDE20EF8 Accuracy: -m0
  Conclusion: CDDA 100%
  Signature: 3D6C1FBE68B978DDF09BF33537EC4531DE60941E
FILE: 10 - It's Not Over.wv
  Size: 23805854 Hash: 78C2E4BE0F4A5B4CA84CC1CA8E5024D2 Accuracy: -m0
  Conclusion: ???
  Signature: 8FB49222ACD8F49A74EFCA5B5CD306743ADB767F
FILE: 09 - Always a Fool.wv
  Size: 24363977 Hash: 074226E88FABA0EA41FCAB6D8D680097 Accuracy: -m0
  Conclusion: CDDA 100%
  Signature: 6659A738FB99A83B3DD5F6285531EE8DDE79521C
FILE: 08 - Woman And Man.wv
  Size: 26823489 Hash: 018CEC0AA4F7343129F886FFD9504171 Accuracy: -m0
  Conclusion: CDDA 100%
  Signature: E19241A159A5845E785507640902D956308B235F
FILE: 07 - Upside Down.wv
  Size: 33034531 Hash: 42E3D4B18BC2BB28109A098F1F164F38 Accuracy: -m0
  Conclusion: CDDA 100%
  Signature: 61CF4A160302B801E17D25BAEF6421D4BED93347
FILE: 06 - The Go-Between.wv
  Size: 29978850 Hash: A29D43C65EEA6BE4848B6F9EF106E2C5 Accuracy: -m0
  Conclusion: CDDA 100%
  Signature: 9CD72918A86B6931078C5B1EBCEC9A70DB7F61D9
FILE: 05 - I Want You.wv
  Size: 31459764 Hash: B0D15384B64D32EE838F69A267405F71 Accuracy: -m0
  Conclusion: CDDA 100%
  Signature: 948D7EC31712E27CA1F614A6A30B70CB132CC8BE
FILE: 04 - Eyes Are Talking.wv
  Size: 30980362 Hash: 3DAECD98C80A0276F45E28C6492996CE Accuracy: -m0
  Conclusion: CDDA 100%
  Signature: 486E1904FE6ABCBDE7DADE59E43912CAC4E33364
FILE: 03 - Different.wv
  Size: 27692389 Hash: 7CA2A40B8E194D8237E6C1B0FF34A8DD Accuracy: -m0
  Conclusion: CDDA 100%
  Signature: FF923410BEB13A90E81800C92865C7F5300228EB
FILE: 02 - If I Do.wv
  Size: 28638057 Hash: 258D6AFF28DDEC1202729E397BC7A6F4 Accuracy: -m0
  Conclusion: CDDA 100%
  Signature: 1273647972187367D7D2760ACB2382B43C26F76C
FILE: 01 - Satellites.wv
  Size: 28833654 Hash: 9F6540ABE52E846834C3ADCC68C97E63 Accuracy: -m0
  Conclusion: CDDA 100%
  Signature: 43B5708E1310474CEA24621C81E5AFBD00C284FB
-
Яндекс.Метрика
Рейтинг@Mail.ru