[ Сегодня на трекере фрилич! Идет свободное скачивание без начисления Download ]

A-Ha - Ending On A High Note (The Final Concert) [Deluxe Edition] (2011) [FLAC|Lossless]<New Wave, Pop>

 

Создавать темы 17-Дек-2014 11:52

-A-Ha - Ending On A High Note (The Final Concert) [Deluxe Edition] (2011)- Год: 2011
Жанр: New Wave, Pop
Продолжительность: 00:47:33+00:43:34
Кодек: FLAC
Битрейт: Lossless
Трек лист:
Disc 1:
01. The Sun Always Shines On TV (06:33)
02. Move To Memphis (04:06)
03. The Blood That Moves The Body (04:17)
04. Scoundrel Days (04:20)
05. The Swing Of Things (04:30)
06. Forever Not Yours (04:04)
07. Stay On These Roads (04:55)
08. Manhattan Skyline (05:07)
09. Hunting High And Low (04:37)
10. We`re Looking For The Whales (05:04)
Disc 2:
01. Butterfly, Butterfly (The last hurrah) (04:34)
02. Crying In The Rain (03:35)
03. Minor Earth, Major Sky (03:23)
04. Summer Moved On (04:56)
05. I`ve Been Losing You (03:43)
06. Foot Of The Mountain (04:11)
07. Cry Wolf (04:37)
08. Analogue (04:36)
09. The Living Daylights (05:10)
10. Take On Me (04:48)

Отчёт ЕАС CD 1&#58;

Exact Audio Copy V1.0 beta 1 from 15. November 2010
EAC extraction logfile from 12. April 2011, 17:48
a-ha / Ending On A High Note - The Final Concert (CD 1)
Used drive  : HL-DT-STDVD+-RW GA11N   Adapter: 0  ID: 1
Read mode               : Secure
Utilize accurate stream : Yes
Defeat audio cache      : Yes
Make use of C2 pointers : No
Read offset correction                      : 667
Overread into Lead-In and Lead-Out          : No
Fill up missing offset samples with silence : Yes
Delete leading and trailing silent blocks   : No
Null samples used in CRC calculations       : Yes
Used interface                              : Native Win32 interface for Win NT & 2000
Gap handling                                : Appended to previous track
Used output format              : User Defined Encoder
Selected bitrate                : 896 kBit/s
Quality                         : High
Add ID3 tag                     : No
Command line compressor         : C:\Program Files (x86)\Exact Audio Copy 1.0\Flac\flac.exe
Additional command line options : -V -8 -T "artist=%a" -T "title=%t" -T "album=%g" -T "date=%y" -T "tracknumber=%n" -T "genre=%m" %s
TOC of the extracted CD
     Track |   Start  |  Length  | Start sector | End sector
    ---------------------------------------------------------
        1  |  0:00.00 |  6:32.59 |         0    |    29458
        2  |  6:32.59 |  4:06.37 |     29459    |    47945
        3  | 10:39.21 |  4:17.29 |     47946    |    67249
        4  | 14:56.50 |  4:20.00 |     67250    |    86749
        5  | 19:16.50 |  4:29.44 |     86750    |   106968
        6  | 23:46.19 |  4:03.73 |    106969    |   125266
        7  | 27:50.17 |  4:55.17 |    125267    |   147408
        8  | 32:45.34 |  5:06.39 |    147409    |   170397
        9  | 37:51.73 |  4:36.58 |    170398    |   191155
       10  | 42:28.56 |  5:04.37 |    191156    |   213992
Track  1
     Filename C:\EACrips\a-ha - 2011 - Ending On A High Note - The Final Concert (CD 1)\01 - The Sun Always Shines On TV.wav
     Pre-gap length  0:00:02.00
     Peak level 100.0 %
     Extraction speed 3.2 X
     Track quality 100.0 %
     Test CRC C1BB2365
     Copy CRC C1BB2365
     Track not present in AccurateRip database
     Copy OK
Track  2
     Filename C:\EACrips\a-ha - 2011 - Ending On A High Note - The Final Concert (CD 1)\02 - Move To Memphis.wav
     Peak level 100.0 %
     Extraction speed 3.4 X
     Track quality 100.0 %
     Test CRC 0C78705D
     Copy CRC 0C78705D
     Track not present in AccurateRip database
     Copy OK
Track  3
     Filename C:\EACrips\a-ha - 2011 - Ending On A High Note - The Final Concert (CD 1)\03 - The Blood That Moves The Body.wav
     Peak level 98.8 %
     Extraction speed 3.7 X
     Track quality 100.0 %
     Test CRC B9D69378
     Copy CRC B9D69378
     Track not present in AccurateRip database
     Copy OK
Track  4
     Filename C:\EACrips\a-ha - 2011 - Ending On A High Note - The Final Concert (CD 1)\04 - Scoundrel Days.wav
     Peak level 100.0 %
     Extraction speed 3.4 X
     Track quality 99.9 %
     Test CRC 394A8B88
     Copy CRC 394A8B88
     Track not present in AccurateRip database
     Copy OK
Track  5
     Filename C:\EACrips\a-ha - 2011 - Ending On A High Note - The Final Concert (CD 1)\05 - The Swing Of Things.wav
     Peak level 100.0 %
     Extraction speed 4.3 X
     Track quality 100.0 %
     Test CRC 5C488E5D
     Copy CRC 5C488E5D
     Track not present in AccurateRip database
     Copy OK
Track  6
     Filename C:\EACrips\a-ha - 2011 - Ending On A High Note - The Final Concert (CD 1)\06 - Forever Not Yours.wav
     Peak level 100.0 %
     Extraction speed 4.5 X
     Track quality 100.0 %
     Test CRC 4D3F6B5F
     Copy CRC 4D3F6B5F
     Track not present in AccurateRip database
     Copy OK
Track  7
     Filename C:\EACrips\a-ha - 2011 - Ending On A High Note - The Final Concert (CD 1)\07 - Stay On These Roads.wav
     Peak level 98.9 %
     Extraction speed 4.8 X
     Track quality 100.0 %
     Test CRC A1BB0D4D
     Copy CRC A1BB0D4D
     Track not present in AccurateRip database
     Copy OK
Track  8
     Filename C:\EACrips\a-ha - 2011 - Ending On A High Note - The Final Concert (CD 1)\08 - Manhattan Skyline.wav
     Peak level 100.0 %
     Extraction speed 4.4 X
     Track quality 99.9 %
     Test CRC 1B6CF766
     Copy CRC 1B6CF766
     Track not present in AccurateRip database
     Copy OK
Track  9
     Filename C:\EACrips\a-ha - 2011 - Ending On A High Note - The Final Concert (CD 1)\09 - Hunting High And Low.wav
     Peak level 99.7 %
     Extraction speed 5.2 X
     Track quality 100.0 %
     Test CRC 77F2F203
     Copy CRC 77F2F203
     Track not present in AccurateRip database
     Copy OK
Track 10
     Filename C:\EACrips\a-ha - 2011 - Ending On A High Note - The Final Concert (CD 1)\10 - We`re Looking For The Whales.wav
     Peak level 100.0 %
     Extraction speed 5.5 X
     Track quality 100.0 %
     Test CRC 318A7E43
     Copy CRC 318A7E43
     Track not present in AccurateRip database
     Copy OK
None of the tracks are present in the AccurateRip database
No errors occurred
End of status report
==== Log checksum E98FA925FC88FD1107F13EFEDA05FE8D79FB790180B5F577CD50302D610A5890 ====

Отчёт ЕАС CD 2&#58;

Exact Audio Copy V1.0 beta 1 from 15. November 2010
EAC extraction logfile from 12. April 2011, 18:31
a-ha / Ending On A High Note - The Final Concert (CD 2)
Used drive  : HL-DT-STDVD+-RW GA11N   Adapter: 0  ID: 1
Read mode               : Secure
Utilize accurate stream : Yes
Defeat audio cache      : Yes
Make use of C2 pointers : No
Read offset correction                      : 667
Overread into Lead-In and Lead-Out          : No
Fill up missing offset samples with silence : Yes
Delete leading and trailing silent blocks   : No
Null samples used in CRC calculations       : Yes
Used interface                              : Native Win32 interface for Win NT & 2000
Gap handling                                : Appended to previous track
Used output format              : User Defined Encoder
Selected bitrate                : 896 kBit/s
Quality                         : High
Add ID3 tag                     : No
Command line compressor         : C:\Program Files (x86)\Exact Audio Copy 1.0\Flac\flac.exe
Additional command line options : -V -8 -T "artist=%a" -T "title=%t" -T "album=%g" -T "date=%y" -T "tracknumber=%n" -T "genre=%m" %s
TOC of the extracted CD
     Track |   Start  |  Length  | Start sector | End sector
    ---------------------------------------------------------
        1  |  0:00.00 |  4:33.45 |         0    |    20519
        2  |  4:33.45 |  3:35.36 |     20520    |    36680
        3  |  8:09.06 |  3:22.54 |     36681    |    51884
        4  | 11:31.60 |  4:56.32 |     51885    |    74116
        5  | 16:28.17 |  3:43.12 |     74117    |    90853
        6  | 20:11.29 |  4:11.17 |     90854    |   109695
        7  | 24:22.46 |  4:37.27 |    109696    |   130497
        8  | 28:59.73 |  4:36.36 |    130498    |   151233
        9  | 33:36.34 |  5:10.10 |    151234    |   174493
       10  | 38:46.44 |  4:47.47 |    174494    |   196065
Track  1
     Filename C:\EACrips\a-ha - 2011 - Ending On A High Note - The Final Concert (CD 2)\01 - Butterfly, Butterfly (The last hurrah).wav
     Pre-gap length  0:00:02.00
     Peak level 97.1 %
     Extraction speed 2.6 X
     Track quality 99.9 %
     Test CRC 854230E8
     Copy CRC 854230E8
     Track not present in AccurateRip database
     Copy OK
Track  2
     Filename C:\EACrips\a-ha - 2011 - Ending On A High Note - The Final Concert (CD 2)\02 - Crying In The Rain.wav
     Peak level 97.2 %
     Extraction speed 3.2 X
     Track quality 100.0 %
     Test CRC F7BB4D4F
     Copy CRC F7BB4D4F
     Track not present in AccurateRip database
     Copy OK
Track  3
     Filename C:\EACrips\a-ha - 2011 - Ending On A High Note - The Final Concert (CD 2)\03 - Minor Earth, Major Sky.wav
     Peak level 98.9 %
     Extraction speed 3.4 X
     Track quality 100.0 %
     Test CRC 87255370
     Copy CRC 87255370
     Track not present in AccurateRip database
     Copy OK
Track  4
     Filename C:\EACrips\a-ha - 2011 - Ending On A High Note - The Final Concert (CD 2)\04 - Summer Moved On.wav
     Peak level 100.0 %
     Extraction speed 3.9 X
     Track quality 100.0 %
     Test CRC AD59816D
     Copy CRC AD59816D
     Track not present in AccurateRip database
     Copy OK
Track  5
     Filename C:\EACrips\a-ha - 2011 - Ending On A High Note - The Final Concert (CD 2)\05 - I`ve Been Losing You.wav
     Peak level 99.8 %
     Extraction speed 3.3 X
     Track quality 99.9 %
     Test CRC 739B3769
     Copy CRC 739B3769
     Track not present in AccurateRip database
     Copy OK
Track  6
     Filename C:\EACrips\a-ha - 2011 - Ending On A High Note - The Final Concert (CD 2)\06 - Foot Of The Mountain.wav
     Peak level 100.0 %
     Extraction speed 4.3 X
     Track quality 100.0 %
     Test CRC 10B80CF4
     Copy CRC 10B80CF4
     Track not present in AccurateRip database
     Copy OK
Track  7
     Filename C:\EACrips\a-ha - 2011 - Ending On A High Note - The Final Concert (CD 2)\07 - Cry Wolf.wav
     Peak level 100.0 %
     Extraction speed 4.6 X
     Track quality 100.0 %
     Test CRC 15836384
     Copy CRC 15836384
     Track not present in AccurateRip database
     Copy OK
Track  8
     Filename C:\EACrips\a-ha - 2011 - Ending On A High Note - The Final Concert (CD 2)\08 - Analogue.wav
     Peak level 100.0 %
     Extraction speed 4.8 X
     Track quality 100.0 %
     Test CRC F5C37133
     Copy CRC F5C37133
     Track not present in AccurateRip database
     Copy OK
Track  9
     Filename C:\EACrips\a-ha - 2011 - Ending On A High Note - The Final Concert (CD 2)\09 - The Living Daylights.wav
     Peak level 99.4 %
     Extraction speed 4.4 X
     Track quality 99.9 %
     Test CRC F667EE5D
     Copy CRC F667EE5D
     Track not present in AccurateRip database
     Copy OK
Track 10
     Filename C:\EACrips\a-ha - 2011 - Ending On A High Note - The Final Concert (CD 2)\10 - Take On Me.wav
     Peak level 100.0 %
     Extraction speed 5.3 X
     Track quality 100.0 %
     Test CRC E396DC73
     Copy CRC E396DC73
     Track not present in AccurateRip database
     Copy OK
None of the tracks are present in the AccurateRip database
No errors occurred
End of status report
==== Log checksum 061378E6F84194BCCE6592E416064147B156BDC9DABC34922E8A7A0C1E58B77D ====

Отчёт auCDtect Task manager CD1&#58;

-----------------------
DON'T MODIFY THIS FILE
-----------------------
PERFORMER: auCDtect Task Manager, ver. 1.5.1RC4 build 1.5.1.5
Copyright (c) 2008-2010 y-soft. All rights reserved
http://y-soft.org
ANALYZER: auCDtect: CD records authenticity detector, version 0.8.2
Copyright (c) 2004 Oleg Berngardt. All rights reserved.
Copyright (c) 2004 Alexander Djourik. All rights reserved.
FILE: 10 - We`re Looking For The Whales.flac
  Size: 38185999 Hash: 935CA7E4F1BB4321389C78F91D05FC02 Accuracy: -m0
  Conclusion: CDDA 100%
  Signature: 9D775229A81C3FA380AD682F625DBC5E4CB71B01
FILE: 09 - Hunting High And Low.flac
  Size: 32473615 Hash: F00D69B944E4601A7872410132D74AE9 Accuracy: -m0
  Conclusion: CDDA 100%
  Signature: BF270FE1E6B8118F315D4FFF06C3615280A7D7E3
FILE: 08 - Manhattan Skyline.flac
  Size: 38239560 Hash: 573F18A9B687091B71AD7BE6EB1CB2B7 Accuracy: -m0
  Conclusion: CDDA 100%
  Signature: A10E3384C702010212F69A81339ECE2E3F32C140
FILE: 07 - Stay On These Roads.flac
  Size: 36972878 Hash: C46ED570D5A9080A21C8BAEB8C94E713 Accuracy: -m0
  Conclusion: CDDA 100%
  Signature: 4B8FF0F02511179728D1FD54E78763C58D17274B
FILE: 06 - Forever Not Yours.flac
  Size: 30199203 Hash: 1F3AFE222E9B261CA2034204CA458247 Accuracy: -m0
  Conclusion: CDDA 100%
  Signature: DAE5B7BB61A965F22132C96B5593B5BF886B0905
FILE: 05 - The Swing Of Things.flac
  Size: 34045138 Hash: 2250BC70570B8625CC77720FF6F94BF1 Accuracy: -m0
  Conclusion: CDDA 100%
  Signature: B2605DA23FE7A8AED474F6BC4C6C570261CC09C0
FILE: 04 - Scoundrel Days.flac
  Size: 33716571 Hash: 8E1DA3C702F9BCEB3088F464A8EFAB5B Accuracy: -m0
  Conclusion: CDDA 100%
  Signature: 2EB2D072156D2A66D0D61F77874ED3EEC5C3D488
FILE: 03 - The Blood That Moves The Body.flac
  Size: 32739630 Hash: ED050091C9F02E3F020ECA6B18C6130C Accuracy: -m0
  Conclusion: CDDA 100%
  Signature: 43EB7E23362A8B88184A3D51AD3D7CA53E713FAC
FILE: 02 - Move To Memphis.flac
  Size: 34178526 Hash: C59405C1A3076466573056FC376CAD19 Accuracy: -m0
  Conclusion: CDDA 100%
  Signature: B34255284EB56294EE0D08449AAD6FC588068F7B
FILE: 01 - The Sun Always Shines On TV.flac
  Size: 51114690 Hash: 3AAAE7B242A3CF27123F3487BB7A137F Accuracy: -m0
  Conclusion: CDDA 100%
  Signature: E13F5892878E8261FCDF119F1BB4D009AB08FD01

Отчёт auCDtect Task manager CD 2&#58;

-----------------------
DON'T MODIFY THIS FILE
-----------------------
PERFORMER: auCDtect Task Manager, ver. 1.5.1RC4 build 1.5.1.5
Copyright (c) 2008-2010 y-soft. All rights reserved
http://y-soft.org
ANALYZER: auCDtect: CD records authenticity detector, version 0.8.2
Copyright (c) 2004 Oleg Berngardt. All rights reserved.
Copyright (c) 2004 Alexander Djourik. All rights reserved.
FILE: 10 - Take On Me.flac
  Size: 38747256 Hash: 9CE0F2647DA93FA906E825DEA38D9D41 Accuracy: -m0
  Conclusion: CDDA 100%
  Signature: 6CDCD3CCA897AB459676AA8DBD95BE1CA0CE76C8
FILE: 09 - The Living Daylights.flac
  Size: 40932444 Hash: F80280B5883BF7F817DD894A69242015 Accuracy: -m0
  Conclusion: CDDA 100%
  Signature: 596DCA53A34E8455605B00164CBBF0B3458C31FA
FILE: 08 - Analogue.flac
  Size: 34780549 Hash: EAE0DF96E49E15626E29DC87A1F0E993 Accuracy: -m0
  Conclusion: CDDA 100%
  Signature: 44458C694B397E7E1F3F21AD5BB7AECF12AE61B1
FILE: 07 - Cry Wolf.flac
  Size: 35906037 Hash: 7B0F9F649F6B60A48F4057AF3AB0263A Accuracy: -m0
  Conclusion: CDDA 100%
  Signature: 99CFEC64D35D3008AD478A832DAC68E325A740B1
FILE: 06 - Foot Of The Mountain.flac
  Size: 34344559 Hash: D2D3B2D270B3289E193B4A5973A665E0 Accuracy: -m0
  Conclusion: CDDA 100%
  Signature: 1FBA598D18127A8658DA0B6E026337E0E226C125
FILE: 05 - I`ve Been Losing You.flac
  Size: 30896627 Hash: 4BCF03448FBEDF3AC4FD53FE5374C10E Accuracy: -m0
  Conclusion: CDDA 100%
  Signature: 14EE6A73CFDF9D56D58B99460115AFB7E716761C
FILE: 04 - Summer Moved On.flac
  Size: 35686080 Hash: 9742E89715C6E8A9DDA0A5C08B62461F Accuracy: -m0
  Conclusion: CDDA 100%
  Signature: D1CA4CC7FEFBA0FED4B67E7321B5B93922D29DD4
FILE: 03 - Minor Earth, Major Sky.flac
  Size: 25285103 Hash: 674D810E6558DCE2B682B82B1EDE1673 Accuracy: -m0
  Conclusion: CDDA 100%
  Signature: 472BF73443318CA43EC03F53F4DD5603BDDF5E02
FILE: 02 - Crying In The Rain.flac
  Size: 22838411 Hash: 4FA1FE6BFC664CD65A1D18F85726985B Accuracy: -m0
  Conclusion: CDDA 100%
  Signature: 06851005329C63C7A5149EA50B0B98E0050281CD
FILE: 01 - Butterfly, Butterfly (The last hurrah).flac
  Size: 29049443 Hash: 14517A2CD92F15CD14F4328C5AA32C48 Accuracy: -m0
  Conclusion: CDDA 100%
  Signature: D501D0FAF1DD6F5BB3C94C92D442F5C261F1CB01
-
Яндекс.Метрика
Рейтинг@Mail.ru