[ Сегодня на трекере фрилич! Идет свободное скачивание без начисления Download ]

Jamiroquai - Deeper Underground (1997) [FLAC|Lossless]<Dancefloor, Acid Jazz>

 

Создавать темы 17-Дек-2014 11:52

-Jamiroquai - Deeper Underground (1997)- Год: 1997
Жанр: Dancefloor, Acid Jazz
Продолжительность: 00:15:21
Страна-производитель диска: Austria
Издатель (лейбл): Sony Music
Номер по каталогу: 666218 2
Кодек: FLAC
Битрейт: Lossless
Тип рипа: tracks + .cue
Происхождение: собственный рип
Треклист:
1. Deeper Underground (Radio Edit) 03:33
2. Deeper Underground (The Metro Mix) 06:59
3. Deeper Underground (Instrumental) 04:44 http://www.musik-sammler.de/media/195773
http://www.tape.tv/jamiroquai/videos/deeper-underground

Отчёт ЕАС&#58;

Exact Audio Copy V1.0 beta 3 from 29. August 2011
EAC extraction logfile from 17. September 2014, 20:50
Jamiroquai / Deeper Underground
Used drive  : TSSTcorpDVD+-RW TS-T633A   Adapter: 1  ID: 0
Read mode               : Secure
Utilize accurate stream : Yes
Defeat audio cache      : Yes
Make use of C2 pointers : No
Read offset correction                      : 6
Overread into Lead-In and Lead-Out          : No
Fill up missing offset samples with silence : Yes
Delete leading and trailing silent blocks   : No
Null samples used in CRC calculations       : Yes
Used interface                              : Native Win32 interface for Win NT & 2000
Gap handling                                : Appended to previous track
Used output format              : User Defined Encoder
Selected bitrate                : 768 kBit/s
Quality                         : High
Add ID3 tag                     : No
Command line compressor         : C:\Program Files (x86)\Exact Audio Copy\Flac\flac.exe
Additional command line options : -8 -V -T "TITLE=%title%" -T "ARTIST=%artist%" -T "ALBUMARTIST=%albumartist%" -T "ALBUM=%albumtitle%" -T "DATE=%year%" -T "TRACKNUMBER=%tracknr%" -T "TRACKTOTAL=%numtracks%" -T "GENRE=%genre%" -T "COMMENT=%comment%" -T "PERFORMER=%albuminterpret%" -T "COMPOSER=%composer%" %source% -o %dest%
TOC of the extracted CD
     Track |   Start  |  Length  | Start sector | End sector
    ---------------------------------------------------------
        1  |  0:00.00 |  3:35.15 |         0    |    16139
        2  |  3:35.15 |  6:59.42 |     16140    |    47606
        3  | 10:34.57 |  4:46.30 |     47607    |    69086
Track  1
     Filename E:\Audio\Flac\JAZZ\Jamiroquai_Deeper Underground\01 Deeper Underground (Radio Edit).wav
     Pre-gap length  0:00:02.00
     Peak level 100.0 %
     Extraction speed 1.0 X
     Track quality 100.0 %
     Test CRC DBE2588C
     Copy CRC DBE2588C
     Accurately ripped (confidence 5)  [DE3172AC]  (AR v2)
     Copy OK
Track  2
     Filename E:\Audio\Flac\JAZZ\Jamiroquai_Deeper Underground\02 Deeper Underground (The Metro Mix).wav
     Pre-gap length  0:00:01.00
     Peak level 98.4 %
     Extraction speed 1.3 X
     Track quality 100.0 %
     Test CRC E6C6F13F
     Copy CRC E6C6F13F
     Accurately ripped (confidence 4)  [84AB4A2C]  (AR v2)
     Copy OK
Track  3
     Filename E:\Audio\Flac\JAZZ\Jamiroquai_Deeper Underground\03 Deeper Underground (Instrumental).wav
     Pre-gap length  0:00:02.20
     Peak level 100.0 %
     Extraction speed 1.4 X
     Track quality 100.0 %
     Test CRC 691C1A9E
     Copy CRC 691C1A9E
     Accurately ripped (confidence 4)  [76A38DFA]  (AR v2)
     Copy OK
All tracks accurately ripped
No errors occurred
End of status report
---- CUETools DB Plugin V2.1.3
[CTDB TOCID: nGqgor0_sh2aJxtXO_VeKWd6jKw-] found, Submit result: nGqgor0_sh2aJxtXO_VeKWd6jKw- has been confirmed
[dd130cde] (15/15) Accurately ripped
==== Log checksum C003BF6C502DD4596DE1DCCF85914A5C671AF77A559C73E452FC25132ABF52F1 ====

Отчёт auCDtect Task manager&#58;

-----------------------
DON'T MODIFY THIS FILE
-----------------------
PERFORMER: auCDtect Task Manager, ver. 1.5.1RC4 build 1.5.1.5
Copyright (c) 2008-2010 y-soft. All rights reserved
http://y-soft.org
ANALYZER: auCDtect: CD records authenticity detector, version 0.8.2
Copyright (c) 2004 Oleg Berngardt. All rights reserved.
Copyright (c) 2004 Alexander Djourik. All rights reserved.
FILE: 03 Deeper Underground (Instrumental).flac
  Size: 31282135 Hash: 81465AD598FC14C378175CB8C9481A63 Accuracy: -m0
  Conclusion: CDDA 100%
  Signature: DB731C35CA8A92BB9ED45BF3B35DF5A337FBD726
FILE: 02 Deeper Underground (The Metro Mix).flac
  Size: 49126165 Hash: 6FF9DAB69904B06834A2F2794AFB4E18 Accuracy: -m0
  Conclusion: CDDA 100%
  Signature: C0854AFA2B9019F646997D0A90CE1D19AA5D4C69
FILE: 01 Deeper Underground (Radio Edit).flac
  Size: 26478502 Hash: 2973CAB44932A198DE04D9BF3DC74512 Accuracy: -m0
  Conclusion: CDDA 100%
  Signature: 9BCFE3D6437E53EE96DBA869E96BA4C38FCD1EE9
-
Яндекс.Метрика
Рейтинг@Mail.ru