Eiffel 65 - Europop (2000) /2CD Australian Edition/ [FLAC|Lossless]<Euro House, Italodance>

 

Создавать темы 17-Дек-2014 11:52

-Eiffel 65 - Europop (2000) Australian Edition- Лейбл: BMG/Central Station
Каталог: CSR CD 5124
Год издания: 2000
Жанр: Euro House, Italodance
Продолжительность: 01:43:23
Кодек: FLAC (tracks+ .cue)
Битрейт: Lossless-CD 1
Треклист:
01. Too Much of Heaven
02. Dub in Life
03. Blue (Da Ba Dee)
04. Living in a Bubble
05. Move Your Body
06. My Console
07. Your Clown
08. Another Race
09. The Edge
10. Now Is Forever
11. Silicon World
12. Europop
Bonus Track:
13. Hyperlink (Deep Down)
Продолжительность - 01:01:12

Отчёт XLD&#58;

X Lossless Decoder version 20090320 (105.1)
XLD extraction logfile from 2009-08-07 23:06:32 -0400
Eiffel 65 / Europop
Used drive : PIONEER DVD-RW  DVR-K06 (revision Q609)
Use cdparanoia mode     : YES (CDParanoia III 10.2 engine)
Disable audio cache     : OK for the drive with cache less than 2750KB
Make use of C2 pointers : NO
Read offset correction  : 48
Max retry count         : 100
TOC of the extracted CD
     Track |   Start  |  Length  | Start sector | End sector
    ---------------------------------------------------------
        1  | 00:00:00 | 05:15:07 |         0    |    23631
        2  | 05:15:07 | 03:56:29 |     23632    |    41360
        3  | 09:11:36 | 04:41:56 |     41361    |    62491
        4  | 13:53:17 | 05:03:08 |     62492    |    85224
        5  | 18:56:25 | 04:28:13 |     85225    |   105337
        6  | 23:24:38 | 04:13:43 |    105338    |   124355
        7  | 27:38:06 | 04:08:65 |    124356    |   143020
        8  | 31:46:71 | 04:33:54 |    143021    |   163549
        9  | 36:20:50 | 04:20:11 |    163550    |   183060
       10  | 40:40:61 | 05:43:46 |    183061    |   208831
       11  | 46:24:32 | 04:28:63 |    208832    |   228994
       12  | 50:53:20 | 05:25:17 |    228995    |   253386
       13  | 56:18:37 | 04:59:71 |    253387    |   275882
All Tracks
    Album gain             : -7.74 dB
    Peak                   : 0.999908
Track 01
    Filename : /XLD/Eiffel 65 - Europop (2CD Australian Edition) [FLAC]/01 - Too Much Of Heaven.flac
    Track gain             : -8.60 dB
    Peak                   : 0.999908
    CRC32 hash (test run)  : ABF90382
    CRC32 hash             : ABF90382
    CRC32 hash (skip zero) : 2E21ABE6
    AccurateRip signature  : 88882690
        ->Accurately ripped! (confidence 6)
    Statistics
        Read error                           : 0
        Skipped (treated as error)           : 0
        Edge jitter error (maybe fixed)      : 0
        Atom jitter error (maybe fixed)      : 0
        Drift error (maybe fixed)            : 0
        Dropped bytes error (maybe fixed)    : 0
        Duplicated bytes error (maybe fixed) : 0
        Inconsistency in error sectors       : 0
Track 02
    Filename : /XLD/Eiffel 65 - Europop (2CD Australian Edition) [FLAC]/02 - Dub In Life.flac
    Track gain             : -8.96 dB
    Peak                   : 0.999908
    CRC32 hash (test run)  : C4E09E27
    CRC32 hash             : C4E09E27
    CRC32 hash (skip zero) : 6708C966
    AccurateRip signature  : 084341E2
        ->Accurately ripped! (confidence 6)
    Statistics
        Read error                           : 0
        Skipped (treated as error)           : 0
        Edge jitter error (maybe fixed)      : 0
        Atom jitter error (maybe fixed)      : 0
        Drift error (maybe fixed)            : 0
        Dropped bytes error (maybe fixed)    : 0
        Duplicated bytes error (maybe fixed) : 0
        Inconsistency in error sectors       : 0
Track 03
    Filename : /XLD/Eiffel 65 - Europop (2CD Australian Edition) [FLAC]/03 - Blue (Da Ba Dee).flac
    Track gain             : -7.36 dB
    Peak                   : 0.999908
    CRC32 hash (test run)  : CE489E5E
    CRC32 hash             : CE489E5E
    CRC32 hash (skip zero) : B8D71AB5
    AccurateRip signature  : 1F92A657
        ->Accurately ripped! (confidence 6)
    Statistics
        Read error                           : 0
        Skipped (treated as error)           : 0
        Edge jitter error (maybe fixed)      : 0
        Atom jitter error (maybe fixed)      : 0
        Drift error (maybe fixed)            : 0
        Dropped bytes error (maybe fixed)    : 0
        Duplicated bytes error (maybe fixed) : 0
        Inconsistency in error sectors       : 0
Track 04
    Filename : /XLD/Eiffel 65 - Europop (2CD Australian Edition) [FLAC]/04 - Living In A Bubble.flac
    Track gain             : -7.24 dB
    Peak                   : 0.999908
    CRC32 hash (test run)  : 63A480A6
    CRC32 hash             : 63A480A6
    CRC32 hash (skip zero) : EAAA231E
    AccurateRip signature  : E3C95BB1
        ->Accurately ripped! (confidence 6)
    Statistics
        Read error                           : 0
        Skipped (treated as error)           : 0
        Edge jitter error (maybe fixed)      : 0
        Atom jitter error (maybe fixed)      : 0
        Drift error (maybe fixed)            : 0
        Dropped bytes error (maybe fixed)    : 0
        Duplicated bytes error (maybe fixed) : 0
        Inconsistency in error sectors       : 0
Track 05
    Filename : /XLD/Eiffel 65 - Europop (2CD Australian Edition) [FLAC]/05 - Move Your Body.flac
    Track gain             : -7.47 dB
    Peak                   : 0.999908
    CRC32 hash (test run)  : 7683E32D
    CRC32 hash             : 7683E32D
    CRC32 hash (skip zero) : CC1425C9
    AccurateRip signature  : DBE19F72
        ->Accurately ripped! (confidence 6)
    Statistics
        Read error                           : 0
        Skipped (treated as error)           : 0
        Edge jitter error (maybe fixed)      : 0
        Atom jitter error (maybe fixed)      : 0
        Drift error (maybe fixed)            : 0
        Dropped bytes error (maybe fixed)    : 0
        Duplicated bytes error (maybe fixed) : 0
        Inconsistency in error sectors       : 0
Track 06
    Filename : /XLD/Eiffel 65 - Europop (2CD Australian Edition) [FLAC]/06 - My Console.flac
    Track gain             : -8.76 dB
    Peak                   : 0.999908
    CRC32 hash (test run)  : CF922E7A
    CRC32 hash             : CF922E7A
    CRC32 hash (skip zero) : BD2B115C
    AccurateRip signature  : EE73E792
        ->Accurately ripped! (confidence 6)
    Statistics
        Read error                           : 0
        Skipped (treated as error)           : 0
        Edge jitter error (maybe fixed)      : 0
        Atom jitter error (maybe fixed)      : 0
        Drift error (maybe fixed)            : 0
        Dropped bytes error (maybe fixed)    : 0
        Duplicated bytes error (maybe fixed) : 0
        Inconsistency in error sectors       : 0
Track 07
    Filename : /XLD/Eiffel 65 - Europop (2CD Australian Edition) [FLAC]/07 - Your Clown.flac
    Track gain             : -7.02 dB
    Peak                   : 0.999908
    CRC32 hash (test run)  : 8B060212
    CRC32 hash             : 8B060212
    CRC32 hash (skip zero) : 8FE95D99
    AccurateRip signature  : F0C7E313
        ->Accurately ripped! (confidence 6)
    Statistics
        Read error                           : 0
        Skipped (treated as error)           : 0
        Edge jitter error (maybe fixed)      : 0
        Atom jitter error (maybe fixed)      : 0
        Drift error (maybe fixed)            : 0
        Dropped bytes error (maybe fixed)    : 0
        Duplicated bytes error (maybe fixed) : 0
        Inconsistency in error sectors       : 0
Track 08
    Filename : /XLD/Eiffel 65 - Europop (2CD Australian Edition) [FLAC]/08 - Another Race.flac
    Track gain             : -7.43 dB
    Peak                   : 0.999908
    CRC32 hash (test run)  : 2F3DC3F6
    CRC32 hash             : 2F3DC3F6
    CRC32 hash (skip zero) : 48EA9372
    AccurateRip signature  : C05E706E
        ->Accurately ripped! (confidence 6)
    Statistics
        Read error                           : 0
        Skipped (treated as error)           : 0
        Edge jitter error (maybe fixed)      : 0
        Atom jitter error (maybe fixed)      : 0
        Drift error (maybe fixed)            : 0
        Dropped bytes error (maybe fixed)    : 0
        Duplicated bytes error (maybe fixed) : 0
        Inconsistency in error sectors       : 0
Track 09
    Filename : /XLD/Eiffel 65 - Europop (2CD Australian Edition) [FLAC]/09 - The Edge.flac
    Track gain             : -8.44 dB
    Peak                   : 0.999908
    CRC32 hash (test run)  : 36089335
    CRC32 hash             : 36089335
    CRC32 hash (skip zero) : 2D25E7E4
    AccurateRip signature  : 8B8B19C0
        ->Accurately ripped! (confidence 6)
    Statistics
        Read error                           : 0
        Skipped (treated as error)           : 0
        Edge jitter error (maybe fixed)      : 0
        Atom jitter error (maybe fixed)      : 0
        Drift error (maybe fixed)            : 0
        Dropped bytes error (maybe fixed)    : 0
        Duplicated bytes error (maybe fixed) : 0
        Inconsistency in error sectors       : 0
Track 10
    Filename : /XLD/Eiffel 65 - Europop (2CD Australian Edition) [FLAC]/10 - Now Is Forever.flac
    Track gain             : -6.91 dB
    Peak                   : 0.999908
    CRC32 hash (test run)  : 7384894F
    CRC32 hash             : 7384894F
    CRC32 hash (skip zero) : 6D6B1809
    AccurateRip signature  : 90D3E07A
        ->Accurately ripped! (confidence 6)
    Statistics
        Read error                           : 0
        Skipped (treated as error)           : 0
        Edge jitter error (maybe fixed)      : 0
        Atom jitter error (maybe fixed)      : 0
        Drift error (maybe fixed)            : 0
        Dropped bytes error (maybe fixed)    : 0
        Duplicated bytes error (maybe fixed) : 0
        Inconsistency in error sectors       : 0
Track 11
    Filename : /XLD/Eiffel 65 - Europop (2CD Australian Edition) [FLAC]/11 - Silicon World.flac
    Track gain             : -6.95 dB
    Peak                   : 0.999908
    CRC32 hash (test run)  : D8BB3DDE
    CRC32 hash             : D8BB3DDE
    CRC32 hash (skip zero) : 253B3FC6
    AccurateRip signature  : F734C361
        ->Accurately ripped! (confidence 6)
    Statistics
        Read error                           : 0
        Skipped (treated as error)           : 0
        Edge jitter error (maybe fixed)      : 0
        Atom jitter error (maybe fixed)      : 0
        Drift error (maybe fixed)            : 0
        Dropped bytes error (maybe fixed)    : 0
        Duplicated bytes error (maybe fixed) : 0
        Inconsistency in error sectors       : 0
Track 12
    Filename : /XLD/Eiffel 65 - Europop (2CD Australian Edition) [FLAC]/12 - Europop.flac
    Track gain             : -6.69 dB
    Peak                   : 0.999908
    CRC32 hash (test run)  : 679AC7AC
    CRC32 hash             : 679AC7AC
    CRC32 hash (skip zero) : 80E0BEFA
    AccurateRip signature  : 7584576D
        ->Accurately ripped! (confidence 6)
    Statistics
        Read error                           : 0
        Skipped (treated as error)           : 0
        Edge jitter error (maybe fixed)      : 0
        Atom jitter error (maybe fixed)      : 0
        Drift error (maybe fixed)            : 0
        Dropped bytes error (maybe fixed)    : 0
        Duplicated bytes error (maybe fixed) : 0
        Inconsistency in error sectors       : 0
Track 13
    Filename : /XLD/Eiffel 65 - Europop (2CD Australian Edition) [FLAC]/13 - Hyperlink (Deep Down).flac
    Track gain             : -7.44 dB
    Peak                   : 0.999908
    CRC32 hash (test run)  : D27A129A
    CRC32 hash             : D27A129A
    CRC32 hash (skip zero) : 2B19282E
    AccurateRip signature  : 0353A7DE
        ->Accurately ripped! (confidence 6)
    Statistics
        Read error                           : 0
        Skipped (treated as error)           : 0
        Edge jitter error (maybe fixed)      : 0
        Atom jitter error (maybe fixed)      : 0
        Drift error (maybe fixed)            : 0
        Dropped bytes error (maybe fixed)    : 0
        Duplicated bytes error (maybe fixed) : 0
        Inconsistency in error sectors       : 0
No errors occurred
End of status report

Отчёт auCDtectTaskManager&#58;

-----------------------
DON'T MODIFY THIS FILE
-----------------------
PERFORMER: auCDtect Task Manager, ver. 1.5.1RC4 build 1.5.1.5
Copyright (c) 2008-2010 y-soft. All rights reserved
http://y-soft.org
ANALYZER: auCDtect: CD records authenticity detector, version 0.8.2
Copyright (c) 2004 Oleg Berngardt. All rights reserved.
Copyright (c) 2004 Alexander Djourik. All rights reserved.
FILE: 13 - Hyperlink (Deep Down).flac
  Size: 34057619 Hash: 2CECE0A3FC7FFCB9AE3E09666191C5E3 Accuracy: -m0
  Conclusion: CDDA 100%
  Signature: 36931B34039D3E1322742214FF936842A2195E75
FILE: 12 - Europop.flac
  Size: 33700199 Hash: 84B32B056D9FA173912C7308021731A0 Accuracy: -m0
  Conclusion: CDDA 100%
  Signature: 0C4132E406B67E4484B62930D29E69E9A630E60F
FILE: 11 - Silicon World.flac
  Size: 31063478 Hash: 14DBE2805514098F58F1D125161D1FCA Accuracy: -m0
  Conclusion: CDDA 100%
  Signature: 095D30E0A3912A063D97F3E5BB76E9C7BFAB9F44
FILE: 10 - Now Is Forever.flac
  Size: 39849050 Hash: 040BBB034F89A6E960FFDA3DC1828CA2 Accuracy: -m0
  Conclusion: CDDA 100%
  Signature: 549324153A677B016D52F58B7FA01594261C4FF5
FILE: 09 - The Edge.flac
  Size: 30759440 Hash: 489E5E5F3E8E6B5BB8363CD8B269623D Accuracy: -m0
  Conclusion: CDDA 100%
  Signature: 2E7B01E8C18DB8C3521DE06B6A5805233408418C
FILE: 08 - Another Race.flac
  Size: 32377581 Hash: BF928A025CD0C4AB7741A2E541AC570F Accuracy: -m0
  Conclusion: CDDA 100%
  Signature: 587880D999743FB36A08B91F9FA3A83BB5C4AB68
FILE: 07 - Your Clown.flac
  Size: 26959589 Hash: 908BCA71FCE3F6156F3C21E860241250 Accuracy: -m0
  Conclusion: CDDA 100%
  Signature: 76277582860A42603DD14C81E620F411AD038FEB
FILE: 06 - My Console.flac
  Size: 32055834 Hash: 095ADAD02CEF6EF9273546451B202D3D Accuracy: -m0
  Conclusion: CDDA 100%
  Signature: DF5C773687E1B1C09BD9B712D13B34937DCF7FF8
FILE: 05 - Move Your Body.flac
  Size: 32652654 Hash: 99B226853CEF604A413687B0395D0CAA Accuracy: -m0
  Conclusion: CDDA 99%
  Signature: BF6B29BFC3E7A56A7C2AE8FBD0E626AE96C76872
FILE: 04 - Living In A Bubble.flac
  Size: 33934974 Hash: 6AEF2173BBEB4D9DE8BD0C98AF954A12 Accuracy: -m0
  Conclusion: CDDA 100%
  Signature: CA3BA0BC4EA62652680D16958CB3DA5EC7BBB6EB
FILE: 03 - Blue (Da Ba Dee).flac
  Size: 32766737 Hash: CF57CAA7EC09C007C29DA5CAFF60CD13 Accuracy: -m0
  Conclusion: CDDA 100%
  Signature: 536A34DFECC926247AA94765D4D94E42ECE01531
FILE: 02 - Dub In Life.flac
  Size: 28128262 Hash: 7C72A062E6B80B640B880B4DDFB63D2D Accuracy: -m0
  Conclusion: CDDA 100%
  Signature: A09BE1D4CB1774CC073DD2279407486804A186A5
FILE: 01 - Too Much Of Heaven.flac
  Size: 37993717 Hash: 6A5A0916682919AE9001D3E3E5E4E809 Accuracy: -m0
  Conclusion: CDDA 100%
  Signature: 1E4F2477A0FBF17CC29715B9F05C36BF067674C6
-CD 2
Треклист:
01. Eiffel 65 (Nick Skitz Megamix)
02. Blue (Da Ba Dee) (extended mix)
03. Blue (Da Ba Dee) (Molinaro Parade German cut)
04. Blue (Da Ba Dee) (TJM Bluemax 04 Extension remix)
05. Move Your Body (Paris remix)
06. Move Your Body (Claywork remix)
07. Europop (Parade mix)
Продолжительность - 00:42:11

Отчёт XLD&#58;

X Lossless Decoder version 20090320 (105.1)
XLD extraction logfile from 2009-08-08 00:19:05 -0400
Eiffel 65 / Europop (Bonus Disc)
Used drive : PIONEER DVD-RW  DVR-K06 (revision Q609)
Use cdparanoia mode     : YES (CDParanoia III 10.2 engine)
Disable audio cache     : OK for the drive with cache less than 2750KB
Make use of C2 pointers : NO
Read offset correction  : 48
Max retry count         : 100
TOC of the extracted CD
     Track |   Start  |  Length  | Start sector | End sector
    ---------------------------------------------------------
        1  | 00:00:00 | 07:35:48 |         0    |    34172
        2  | 07:35:48 | 06:28:28 |     34173    |    63300
        3  | 14:04:01 | 02:48:62 |     63301    |    75962
        4  | 16:52:63 | 06:36:69 |     75963    |   105731
        5  | 23:29:57 | 07:03:62 |    105732    |   137518
        6  | 30:33:44 | 06:27:48 |    137519    |   166591
        7  | 37:01:17 | 05:14:48 |    166592    |   190189
        8  | 44:47:65 | 25:44:13 |    201590    |   317402
Track 01
    Filename : /XLD/Eiffel 65 - Europop (2CD Australian Edition) [FLAC]/Bonus Disc/01 - Nick Skitz Eiffel 65 Megamix.flac
    Track gain             : -7.18 dB
    Peak                   : 0.999908
    CRC32 hash (test run)  : A0A96C12
    CRC32 hash             : A0A96C12
    CRC32 hash (skip zero) : 6496FC5B
    AccurateRip signature  : A94F312E
        ->Track not present in AccurateRip database.
    Statistics
        Read error                           : 0
        Skipped (treated as error)           : 0
        Edge jitter error (maybe fixed)      : 0
        Atom jitter error (maybe fixed)      : 0
        Drift error (maybe fixed)            : 0
        Dropped bytes error (maybe fixed)    : 0
        Duplicated bytes error (maybe fixed) : 0
        Inconsistency in error sectors       : 0
Track 02
    Filename : /XLD/Eiffel 65 - Europop (2CD Australian Edition) [FLAC]/Bonus Disc/02 - Blue (Da Ba Dee) (Extended Mix).flac
    Track gain             : -7.42 dB
    Peak                   : 0.999939
    CRC32 hash (test run)  : 3B84F80A
    CRC32 hash             : 3B84F80A
    CRC32 hash (skip zero) : C9065899
    AccurateRip signature  : 8AA533B7
        ->Track not present in AccurateRip database.
    Statistics
        Read error                           : 0
        Skipped (treated as error)           : 0
        Edge jitter error (maybe fixed)      : 0
        Atom jitter error (maybe fixed)      : 0
        Drift error (maybe fixed)            : 0
        Dropped bytes error (maybe fixed)    : 0
        Duplicated bytes error (maybe fixed) : 0
        Inconsistency in error sectors       : 0
Track 03
    Filename : /XLD/Eiffel 65 - Europop (2CD Australian Edition) [FLAC]/Bonus Disc/03 - Blue (Da Ba Dee) (Molinaro Parade German Cut).flac
    Track gain             : -7.59 dB
    Peak                   : 0.891205
    CRC32 hash (test run)  : 0646194B
    CRC32 hash             : 0646194B
    CRC32 hash (skip zero) : B5FA0B5B
    AccurateRip signature  : 58C14C1A
        ->Track not present in AccurateRip database.
    Statistics
        Read error                           : 0
        Skipped (treated as error)           : 0
        Edge jitter error (maybe fixed)      : 0
        Atom jitter error (maybe fixed)      : 0
        Drift error (maybe fixed)            : 0
        Dropped bytes error (maybe fixed)    : 0
        Duplicated bytes error (maybe fixed) : 0
        Inconsistency in error sectors       : 0
Track 04
    Filename : /XLD/Eiffel 65 - Europop (2CD Australian Edition) [FLAC]/Bonus Disc/04 - Blue (Da Ba Dee) (TJM Bluemax 04 Extension Remix).flac
    Track gain             : -7.14 dB
    Peak                   : 0.999939
    CRC32 hash (test run)  : B194C7F1
    CRC32 hash             : B194C7F1
    CRC32 hash (skip zero) : E7CBB730
    AccurateRip signature  : B7BAAA28
        ->Track not present in AccurateRip database.
    Statistics
        Read error                           : 0
        Skipped (treated as error)           : 0
        Edge jitter error (maybe fixed)      : 0
        Atom jitter error (maybe fixed)      : 0
        Drift error (maybe fixed)            : 0
        Dropped bytes error (maybe fixed)    : 0
        Duplicated bytes error (maybe fixed) : 0
        Inconsistency in error sectors       : 0
Track 05
    Filename : /XLD/Eiffel 65 - Europop (2CD Australian Edition) [FLAC]/Bonus Disc/05 - Move Your Body (Paris Remix).flac
    Track gain             : -6.29 dB
    Peak                   : 0.999939
    CRC32 hash (test run)  : 817B7180
    CRC32 hash             : 817B7180
    CRC32 hash (skip zero) : 9ADB842E
    AccurateRip signature  : 13A2AEBD
        ->Track not present in AccurateRip database.
    Statistics
        Read error                           : 0
        Skipped (treated as error)           : 0
        Edge jitter error (maybe fixed)      : 0
        Atom jitter error (maybe fixed)      : 0
        Drift error (maybe fixed)            : 0
        Dropped bytes error (maybe fixed)    : 0
        Duplicated bytes error (maybe fixed) : 0
        Inconsistency in error sectors       : 0
Track 06
    Filename : /XLD/Eiffel 65 - Europop (2CD Australian Edition) [FLAC]/Bonus Disc/06 - Move Your Body (Claywork Remix).flac
    Track gain             : -6.78 dB
    Peak                   : 0.999939
    CRC32 hash (test run)  : 51062A97
    CRC32 hash             : 51062A97
    CRC32 hash (skip zero) : DB77A08B
    AccurateRip signature  : D37A04BC
        ->Track not present in AccurateRip database.
    Statistics
        Read error                           : 0
        Skipped (treated as error)           : 0
        Edge jitter error (maybe fixed)      : 0
        Atom jitter error (maybe fixed)      : 0
        Drift error (maybe fixed)            : 0
        Dropped bytes error (maybe fixed)    : 0
        Duplicated bytes error (maybe fixed) : 0
        Inconsistency in error sectors       : 0
Track 07
    Filename : /XLD/Eiffel 65 - Europop (2CD Australian Edition) [FLAC]/Bonus Disc/07 - Europop (Parade Mix).flac
    Track gain             : -6.22 dB
    Peak                   : 0.999939
    CRC32 hash (test run)  : 7D2D3D0D
    CRC32 hash             : 7D2D3D0D
    CRC32 hash (skip zero) : 231010BE
    AccurateRip signature  : F4E1BF42
        ->Track not present in AccurateRip database.
    Statistics
        Read error                           : 0
        Skipped (treated as error)           : 0
        Edge jitter error (maybe fixed)      : 0
        Atom jitter error (maybe fixed)      : 0
        Drift error (maybe fixed)            : 0
        Dropped bytes error (maybe fixed)    : 0
        Duplicated bytes error (maybe fixed) : 0
        Inconsistency in error sectors       : 0
No errors occurred
End of status report

Отчёт auCDtectTaskManager&#58;

-----------------------
DON'T MODIFY THIS FILE
-----------------------
PERFORMER: auCDtect Task Manager, ver. 1.5.1RC4 build 1.5.1.5
Copyright (c) 2008-2010 y-soft. All rights reserved
http://y-soft.org
ANALYZER: auCDtect: CD records authenticity detector, version 0.8.2
Copyright (c) 2004 Oleg Berngardt. All rights reserved.
Copyright (c) 2004 Alexander Djourik. All rights reserved.
FILE: 07 - Europop (Parade Mix).flac
  Size: 33194418 Hash: 9414AA4B0BD511A30629724A8C554114 Accuracy: -m0
  Conclusion: CDDA 99%
  Signature: D1D9A96BDBEF05C8AC6380F27F571BFEA1A8B287
FILE: 06 - Move Your Body (Claywork Remix).flac
  Size: 43396440 Hash: 15B7859593479EC36850C6B7DBC98583 Accuracy: -m0
  Conclusion: CDDA 100%
  Signature: 8CF68D1E2DEF9E20D06520725E5BE0AFD1568752
FILE: 05 - Move Your Body (Paris Remix).flac
  Size: 44328199 Hash: 56192D070E1D322F7FD1A0252F268F7F Accuracy: -m0
  Conclusion: CDDA 100%
  Signature: 2FC247734C287D58F45532E2698172730A58D869
FILE: 04 - Blue (Da Ba Dee) (TJM Bluemax 04 Extension Remix).flac
  Size: 44446951 Hash: A4C3DC79FC150FFABCC5157BE07B2413 Accuracy: -m0
  Conclusion: CDDA 100%
  Signature: 988037A645B1FFF783B424E3B4E2242D3B04CB88
FILE: 03 - Blue (Da Ba Dee) (Molinaro Parade German Cut).flac
  Size: 18590446 Hash: DD8A6BF22FDE2BFE48D47FB3984801BA Accuracy: -m0
  Conclusion: CDDA 99%
  Signature: 2B1389B0D8EABD1FA28809D41DBF1F5320360335
FILE: 02 - Blue (Da Ba Dee) (Extended Mix).flac
  Size: 46722646 Hash: CEF76331E84D4BE46C9DF8A88A58F0DE Accuracy: -m0
  Conclusion: CDDA 100%
  Signature: A620BD6B974B037C53B73FAD7F40BAE1BD8A58DD
FILE: 01 - Nick Skitz Eiffel 65 Megamix.flac
  Size: 49294366 Hash: 9728227CBA0404579937A51319D8E7DA Accuracy: -m0
  Conclusion: CDDA 100%
  Signature: 3928E7F4B31C9639F0BAAFA3043E724617441D1B
-
Яндекс.Метрика
Рейтинг@Mail.ru