[ Сегодня на трекере фрилич! Идет свободное скачивание без начисления Download ]

Aqua - 4 Albums (1997-2011) [FLAC|Lossless]<Eurodance, Europop>

 

Создавать темы 17-Дек-2014 11:52

-Aqua - 4 Albums (1997-2011)- Год: 1997-2011
Жанр: Bubblegum dance, dance-pop, Eurodance, Europop, electropop
Страна: Denmark
Продолжительность: 03:19:57
Кодек: FLAC
Битрейт: Lossless
Тип рипа: image+.cue
Источник (релизер): Stanics
Наличие сканов в содержимом раздачи: да-Aqua — музыкальная данс-поп-группа, состоящая из одной девушки-норвежки Ленэ Нистрём Растед и троих мужчин из Дании. В 1989 году Сёрен Растед и Клаус Норрен сформировали группу под названием "Joyspeed". Позже, вместе с Рене Дифом и Ленэ, группа получила новое, легко запоминающееся название - Aqua. Широкую известность коллектив получил в конце 1990-х с песнями "Roses Are Red" и "Barbie Girl".
До июля 2001 года, когда участниками было принято решение временно разойтись и приостановить свою деятельность в группе, Aqua выпустила два альбома: Aquarium в 1997 году и Aquarius в 2000-м.
24 октября 2007 года участники группы, собрав пресс-конференцию, объявили о воссоединении и об участии на датском фестивале "Grøn Koncert 2008" (англ.). Через пару лет, в 2009 году, вышел сингл «Back to the 80's» (англ.), а также сборник лучших песен - Greatest Hits (англ.), включая три совершенно новые песни. Чуть позже этот сборник дополнился рождественской песней "Spin Me A Christmas" и дополнением в виде DVD диска с концерта в Тиволи, 9 августа 2009 года.
Весь 2010 год группа Aqua посвятила написанию третьего студийного альбома под нескромным названием "MEGALOMANIA" (англ.), который официально поступил в продажу 3 октября 2011 года на территории Дании. Этот новый музыкальный стиль очень сильно отличается от их известного bubblegum. Хотя альбом и достиг #2 в датском чарте (датск.), было достаточно много критических отзывов.
По приблизительным оценкам, за время своего существования группа распродала 33 миллиона экземпляров альбомов и синглов, став таким образом наиболее успешным музыкальным коллективом в Дании.
Состав группы: Ленэ Нистрём Растед (норв. Lene Nystrøm Rasted, вокалист), Рене Диф (дат. René Dif, вокалист), Сёрен Растед (дат. Søren Rasted, композитор, клавишник) и Клаус Норрен (дат. Claus Norreen, композитор, гитарист).
-

Треклист&#58;

1997 - Aquarium

Год: 1997
Издатель (лейбл): Universal
Номер по каталогу: UMD 85020
Треклист:
01.Happy Boys & Girls (3:37)
02.My Oh My (3:25)
03.Barbie Girl (3:18)
04.Good Morning Sunshine (4:04)
05.Doctor Jones (3:23)
06.Heat Of The Night (3:35)
07.Be A Man (4:23)
08.Lollipop (Candyman) (3:37)
09.Roses Are Red (3:46)
10.Turn Back Time (4:09)
11.Calling You (3:33)
---------------------------------------------------------------------
Продолжительность: 00:40:49

Отчёт ЕАС&#58;

Exact Audio Copy V0.99 prebeta 4 from 23. January 2008
Отчёт EAC об извлечении, выполненном 4. марта 2009, 19:01
Aqua / Aquarium
Дисковод: TSSTcorpDVD-ROM SH-D162C   Adapter: 2  ID: 1
Режим чтения                 : Достоверность
Использование точного потока : Да
Отключение кэша аудио        : Да
Использование указателей C2  : Нет
Коррекция смещения при чтении                     : 6
Способность читать области Lead-in и Lead-out     : Нет
Заполнение пропущенных сэмплов тишиной            : Да
Удаление блоков с тишиной в начале и конце        : Нет
При вычислениях CRC использовались нулевые сэмплы : Да
Интерфейс                                         : Установленный внешний ASPI-интерфейс
Выходной формат : Внутренние WAV-операции
Формат сэмплов  : 44.100 Гц; 16 бит; стерео
TOC извлечённого CD
     Трек |   Старт  | Длительность | Начальный сектор | Конечный сектор
    ---------------------------------------------------------------------
       1  |  0:00.30 |    3:37.15   |          30      |      16319
       2  |  3:37.45 |    3:24.38   |       16320      |      31657
       3  |  7:02.08 |    3:17.68   |       31658      |      46500
       4  | 10:20.01 |    4:04.17   |       46501      |      64817
       5  | 14:24.18 |    3:23.15   |       64818      |      80057
       6  | 17:47.33 |    3:35.02   |       80058      |      96184
       7  | 21:22.35 |    4:23.01   |       96185      |     115910
       8  | 25:45.36 |    3:36.50   |      115911      |     132160
       9  | 29:22.11 |    3:45.57   |      132161      |     149092
      10  | 33:07.68 |    4:09.15   |      149093      |     167782
      11  | 37:17.08 |    3:32.57   |      167783      |     183739
Характеристики диапазона извлечения и сообщения об ошибках
Выбранный диапазон
     Имя файла K:\Temp\Aqua - Aquarium\Aqua - Aquarium.wav
     Пиковый уровень 100.0 %
     Качество диапазона 100.0 %
     CRC теста ECF731A9
     CRC копии ECF731A9
     Копирование... OK
Ошибок не произошло
AccurateRip: сводка
Трек  1  точное извлечение (доверие 26)  [6C2FD3F1]
Трек  2  точное извлечение (доверие 25)  [A4106640]
Трек  3  точное извлечение (доверие 25)  [D548728A]
Трек  4  точное извлечение (доверие 25)  [72671451]
Трек  5  точное извлечение (доверие 23)  [082C1890]
Трек  6  точное извлечение (доверие 23)  [7AAF7A2F]
Трек  7  точное извлечение (доверие 25)  [77DFB6DE]
Трек  8  точное извлечение (доверие 26)  [F8119B10]
Трек  9  точное извлечение (доверие 25)  [82DE12FF]
Трек 10  точное извлечение (доверие 26)  [03EE6C65]
Трек 11  точное извлечение (доверие 14)  [446BB557]
Все треки извлечены точно
Конец отчёта

1997 - Aquarium (Limited Christmas Edition&#41;

Год: 1997
Издатель (лейбл): Universal Music Argentina S.A.
Номер по каталогу: UMD 85060
Треклист:
01.Happy Boys & Girls (3:37)
02.My Oh My (3:25)
03.Barbie Girl (3:18)
04.Good Morning Sunshine (4:04)
05.Doctor Jones (3:23)
06.Heat Of The Night (3:35)
07.Be A Man (4:23)
08.Lollipop (Candyman) (3:37)
09.Roses Are Red (3:46)
10.Turn Back Time (4:09)
11.Calling You (3:34)
12.Didn't I (3:18)
13.My Oh My (Spike, Clyde 'N' Eightball Club Mix) (5:04)
14.Lollipop (Candyman) (Extended Version) (5:28)
15.Turn Back Time (Love To Infinity's Classic Radio Mix) (3:20)
16.Doctor Jones (Metro's 7'' Edit) (3:37)
17.The Official Megamix (11:16)
---------------------------------------------------------------------
Продолжительность: 01:12:55

Отчёт ЕАС&#58;

Exact Audio Copy V0.99 prebeta 4 from 23. January 2008
Отчёт EAC об извлечении, выполненном 14. марта 2009, 18:14
Aqua / Aquarium (Limited Christmas Edition)
Дисковод: ASUS    DRW-2014S1T   Adapter: 2  ID: 0
Режим чтения                 : Достоверность
Использование точного потока : Да
Отключение кэша аудио        : Да
Использование указателей C2  : Нет
Коррекция смещения при чтении                     : 6
Способность читать области Lead-in и Lead-out     : Нет
Заполнение пропущенных сэмплов тишиной            : Да
Удаление блоков с тишиной в начале и конце        : Нет
При вычислениях CRC использовались нулевые сэмплы : Да
Интерфейс                                         : Установленный внешний ASPI-интерфейс
Выходной формат : Внутренние WAV-операции
Формат сэмплов  : 44.100 Гц; 16 бит; стерео
TOC извлечённого CD
     Трек |   Старт  | Длительность | Начальный сектор | Конечный сектор
    ---------------------------------------------------------------------
       1  |  0:00.32 |    3:37.00   |          32      |      16306
       2  |  3:37.32 |    3:24.48   |       16307      |      31654
       3  |  7:02.05 |    3:17.72   |       31655      |      46501
       4  | 10:20.02 |    4:03.65   |       46502      |      64791
       5  | 14:23.67 |    3:23.33   |       64792      |      80049
       6  | 17:47.25 |    3:35.02   |       80050      |      96176
       7  | 21:22.27 |    4:22.73   |       96177      |     115899
       8  | 25:45.25 |    3:36.47   |      115900      |     132146
       9  | 29:21.72 |    3:45.70   |      132147      |     149091
      10  | 33:07.67 |    4:08.70   |      149092      |     167761
      11  | 37:16.62 |    3:34.28   |      167762      |     183839
      12  | 40:51.15 |    3:18.22   |      183840      |     198711
      13  | 44:09.37 |    5:04.28   |      198712      |     221539
      14  | 49:13.65 |    5:27.57   |      221540      |     246121
      15  | 54:41.47 |    3:20.28   |      246122      |     261149
      16  | 58:02.00 |    3:37.30   |      261150      |     277454
      17  | 61:39.30 |   11:16.20   |      277455      |     328174
Характеристики диапазона извлечения и сообщения об ошибках
Выбранный диапазон
     Имя файла Z:\Temp\Aqua - Aquarium (Limited Christmas Edition).wav
     Пиковый уровень 56.8 %
     Качество диапазона 100.0 %
     CRC теста DEF468A9
     CRC копии DEF468A9
     Копирование... OK
Ошибок не произошло
AccurateRip: сводка
Трек  1  точное извлечение (доверие 5)  [5EE0251D]
Трек  2  точное извлечение (доверие 5)  [7D5DF1D1]
Трек  3  точное извлечение (доверие 5)  [54514DE6]
Трек  4  точное извлечение (доверие 5)  [B36BBF2A]
Трек  5  точное извлечение (доверие 5)  [EF26FBC1]
Трек  6  точное извлечение (доверие 5)  [1E122DCE]
Трек  7  точное извлечение (доверие 5)  [4E974B28]
Трек  8  точное извлечение (доверие 5)  [5B2669C0]
Трек  9  точное извлечение (доверие 5)  [CA30A980]
Трек 10  точное извлечение (доверие 5)  [AC389C37]
Трек 11  точное извлечение (доверие 5)  [482B9737]
Трек 12  точное извлечение (доверие 5)  [A01B9DF6]
Трек 13  точное извлечение (доверие 5)  [BD6ADD37]
Трек 14  точное извлечение (доверие 5)  [8B8E9322]
Трек 15  точное извлечение (доверие 4)  [608BED9F]
Трек 16  точное извлечение (доверие 5)  [C108521A]
Трек 17  точное извлечение (доверие 5)  [48A5C960]
Все треки извлечены точно
Конец отчёта

2000 - Aquarius

Год: 2000
Издатель (лейбл): Universal
Номер по каталогу: 157 273-2
Треклист:
01.Cartoon Heroes (3:39)
02.Around The World (3:30)
03.Freaky Friday (3:46)
04.We Belong To The Sea (4:19)
05.An Apple A Day (3:39)
06.Halloween (3:51)
07.Good Guys (4:00)
08.Back From Mars (4:05)
09.Aquarius (4:23)
10.Cuba Libre (3:38)
11.Bumble Bees (3:54)
12.Goodbye To The Circus (4:00)
---------------------------------------------------------------------
Продолжительность: 00:46:44

Отчёт ЕАС&#58;

Exact Audio Copy V0.99 prebeta 4 from 23. January 2008
Отчёт EAC об извлечении, выполненном 5. марта 2009, 9:08
Aqua / Aquarius
Дисковод: ASUS    DRW-2014S1T   Adapter: 2  ID: 0
Режим чтения                 : Достоверность
Использование точного потока : Да
Отключение кэша аудио        : Да
Использование указателей C2  : Нет
Коррекция смещения при чтении                     : 6
Способность читать области Lead-in и Lead-out     : Нет
Заполнение пропущенных сэмплов тишиной            : Да
Удаление блоков с тишиной в начале и конце        : Нет
При вычислениях CRC использовались нулевые сэмплы : Да
Интерфейс                                         : Установленный внешний ASPI-интерфейс
Выходной формат : Внутренние WAV-операции
Формат сэмплов  : 44.100 Гц; 16 бит; стерео
TOC извлечённого CD
     Трек |   Старт  | Длительность | Начальный сектор | Конечный сектор
    ---------------------------------------------------------------------
       1  |  0:00.00 |    3:39.33   |           0      |      16457
       2  |  3:39.33 |    3:29.57   |       16458      |      32189
       3  |  7:09.15 |    3:45.61   |       32190      |      49125
       4  | 10:55.01 |    4:18.60   |       49126      |      68535
       5  | 15:13.61 |    3:38.50   |       68536      |      84935
       6  | 18:52.36 |    3:51.15   |       84936      |     102275
       7  | 22:43.51 |    4:00.30   |      102276      |     120305
       8  | 26:44.06 |    4:05.20   |      120306      |     138700
       9  | 30:49.26 |    4:22.60   |      138701      |     158410
      10  | 35:12.11 |    3:37.69   |      158411      |     174754
      11  | 38:50.05 |    3:54.28   |      174755      |     192332
      12  | 42:44.33 |    3:59.51   |      192333      |     210308
      13  | 49:16.09 |    2:31.03   |      221709      |     233036
Характеристики диапазона извлечения и сообщения об ошибках
Выбранный диапазон
     Имя файла Z:\Temp\Aqua - Aquarius.wav
     Пиковый уровень 98.8 %
     Качество диапазона 100.0 %
     CRC теста 5FCFF9EC
     CRC копии 5FCFF9EC
     Копирование... OK
Ошибок не произошло
AccurateRip: сводка
Трек  1  точное извлечение (доверие 26)  [A11D4B86]
Трек  2  точное извлечение (доверие 25)  [F3906320]
Трек  3  точное извлечение (доверие 25)  [3E89CCBC]
Трек  4  точное извлечение (доверие 25)  [988B5E0A]
Трек  5  точное извлечение (доверие 24)  [846EF2BA]
Трек  6  точное извлечение (доверие 24)  [432C27F0]
Трек  7  точное извлечение (доверие 25)  [787B701A]
Трек  8  точное извлечение (доверие 25)  [60043CD2]
Трек  9  точное извлечение (доверие 26)  [E0C8A59C]
Трек 10  точное извлечение (доверие 26)  [2FC77BDE]
Трек 11  точное извлечение (доверие 25)  [ECE00591]
Трек 12  точное извлечение (доверие 25)  [84BAA2FA]
Все треки извлечены точно
Конец отчёта

2011 - Megalomania

Год: 2011
Издатель (лейбл): Universal Music Group
Номер по каталогу: UNI 276 776 7
Треклист:
01.Playmate To Jesus (4:49)
02.Dirty Little Pop Song (3:51)
03.Kill Myself (3:32)
04.Like A Robot (3:39)
05.Viva Las Vegas (3:25)
06.No Party Patrol (3:22)
07.Come N' Get It (3:27)
08.Sucker For A Superstar (3:21)
09.Be My Saviour Tonight (3:18)
10.How R U Doin? (3:23)
11.If The World Didn't Suck (We Would All Fall Off) (3:22)
---------------------------------------------------------------------
Продолжительность: 00:39:28

Отчёт ЕАС&#58;

Exact Audio Copy V1.0 beta 3 from 29. August 2011
Отчёт EAC об извлечении, выполненном 19. января 2012, 0:37
Aqua  / Megalomania
Дисковод: ASUS    DRW-2014S1T   Adapter: 0  ID: 3
Режим чтения                 : Достоверность
Использование точного потока : Да
Отключение кэша аудио        : Да
Использование указателей C2  : Нет
Коррекция смещения при чтении                     : 6
Способность читать области Lead-in и Lead-out     : Нет
Заполнение пропущенных сэмплов тишиной            : Да
Удаление блоков с тишиной в начале и конце        : Нет
При вычислениях CRC использовались нулевые сэмплы : Да
Интерфейс                                         : Встроенный Win32-интерфейс для Win NT/2000
Выходной формат : Внутренние WAV-операции
Формат сэмплов  : 44.100 Гц; 16 бит; стерео
TOC извлечённого CD
     Трек |   Старт  | Длительность | Начальный сектор | Конечный сектор
    ---------------------------------------------------------------------
       1  |  0:00.00 |    4:48.70   |           0      |      21669
       2  |  4:48.70 |    3:51.14   |       21670      |      39008
       3  |  8:40.09 |    3:31.45   |       39009      |      54878
       4  | 12:11.54 |    3:39.11   |       54879      |      71314
       5  | 15:50.65 |    3:24.60   |       71315      |      86674
       6  | 19:15.50 |    3:22.24   |       86675      |     101848
       7  | 22:37.74 |    3:27.10   |      101849      |     117383
       8  | 26:05.09 |    3:20.52   |      117384      |     132435
       9  | 29:25.61 |    3:17.74   |      132436      |     147284
      10  | 32:43.60 |    3:23.15   |      147285      |     162524
      11  | 36:07.00 |    3:21.66   |      162525      |     177665
Характеристики диапазона извлечения и сообщения об ошибках
Выбранный диапазон
     Имя файла Z:\Temp\Aqua  - Megalomania.wav
     Пиковый уровень 100.0 %
     Скорость извлечения 8.0 X
     Качество диапазона 100.0 %
     CRC теста 517745C6
     CRC копии 517745C6
     Копирование... OK
Ошибок не произошло
AccurateRip: сводка
Трек  1  : извлечено точно (доверие 1)  [6BDA9F46]  (AR v1)
Трек  2  : извлечено точно (доверие 1)  [2233FED4]  (AR v1)
Трек  3  : извлечено точно (доверие 1)  [8A57E081]  (AR v1)
Трек  4  : извлечено точно (доверие 1)  [9D2D11C9]  (AR v1)
Трек  5  : извлечено точно (доверие 1)  [949D4AC2]  (AR v1)
Трек  6  : извлечено точно (доверие 1)  [964FF7C8]  (AR v1)
Трек  7  : извлечено точно (доверие 1)  [8B825713]  (AR v1)
Трек  8  : извлечено точно (доверие 1)  [3FDDBDA4]  (AR v1)
Трек  9  : извлечено точно (доверие 1)  [1ED6F95B]  (AR v1)
Трек 10  : извлечено точно (доверие 1)  [AFBB611E]  (AR v1)
Трек 11  : извлечено точно (доверие 1)  [176AE0EC]  (AR v1)
Все треки извлечены точно
Конец отчёта
---- CUETools DB Plugin V2.1.3
[CTDB TOCID: cLk7WMKXJ4CaGpnUf67BHmMhhWU-] found, Submit result: cLk7WMKXJ4CaGpnUf67BHmMhhWU- has been confirmed
[1dd7f010] (2/2) Accurately ripped
==== Контрольная сумма отчёта 01ABDF436B2B9D3AF9E60F02CFC7004727F0CA51BB780A7596E4E19F4DE3E2FB ====
-
Яндекс.Метрика
Рейтинг@Mail.ru