Boney M - Oceans Of Fantasy (1979) The Remastered Edition (2007) [APE|Lossless]<Disco>

 

Создавать темы 17-Дек-2014 11:52

-Boney M - Oceans Of Fantasy (1979) The Remastered Edition (2007)- Год: 1979 (2007)
Жанр: Disco
Продолжительность: 01:01:27
Аудиокодек: APE
Битрейт аудио: Lossless
Треклист:
01. Let It All Be Music (4:56)
02. Gotta Go Home (3:47)
03. Bye Bye Bluebird (4:51)
04. Bahama Mama (3:18)
05. Hold On I'm Coming (3:38)
06. Two Of Us (3:17)
07. Ribbons Of Blue (2:00)
08. Oceans Of Fantasy (5:08)
09. El Lute (5:57)
10. No More Chain Gang (5:25)
11. I'm Born Again (4:10)
12. No Time To Lose (2:57)
13. Calendar Song (January, February, March...) (2:42)
14. I See A Boat On The River (4:42)
15. My Friend Jack (4:41)

Отчёт ЕАС&#58;

EAC Auslese-Logdatei vom 26. April 2007, 8:31 fьr CD
Boney M / Oceans Of Fantasy
Benutztes Laufwerk : BENQ    DVD DD DW1625   Adapter: 0  ID: 1
Lesemodus          : Sicher mit KEINEM C2, Accurate Stream, KEIN Puffer abgeschaltet
Kombinierter Lese/Schreiboffset Korrektur : 0
Ьberlesen in das Lead-In und Lead-Out : Nein
Benutztes Ausgabeformat : Monkey's Audio Lossless Encoder v3.99 DLL
                     Normal Lossless Compression
Andere Einstellungen       :
    Fьlle fehlende Offsetsample mit Stille auf : Ja
    Lцsche fьhrende und nachfolgende stille Blцcke : Nein
    Natьrliche Win32 Schnittstelle fьr Win NT/2000/XP
Bereichsstatus und Fehler
Gewдhlter Bereich
     Dateiname C:\Dokumente und Einstellungen\Bodhisattva\Eigene Dateien\Eigene Musik\boceoff\Boney M - Oceans Of Fantasy.ape
     Spitzenpegel 99.7 %
     Bereichsqualitдt 100.0 %
     CRC 3FE52AAA
     Kopie OK
Keine Fehler aufgetreten
Ende des Statusreports

Отчёт auCDtect Task manager&#58;

-----------------------
DON'T MODIFY THIS FILE
-----------------------
PERFORMER: auCDtect Task Manager, ver. 1.6.0 RC1 build 1.6.0.1
Copyright (c) 2008-2010 y-soft. All rights reserved
http://y-soft.org
ANALYZER: auCDtect: CD records authenticity detector, version 0.8.2
Copyright (c) 2004 Oleg Berngardt. All rights reserved.
Copyright (c) 2004 Alexander Djourik. All rights reserved.
FILE: Boney M - Oceans Of Fantasy.ape
  Size: 421836759 Hash: B276D36739058982B234758A5420FB4F Accuracy: -m0
  Conclusion: CDDA 99%
  Signature: C7E9E34E25F848C7512CEE781EAAA15BDEA3E228

Содержание индексной карты (.CUE&#41;

REM GENRE Disco
REM DATE 1979
REM DISCID D10E670F
REM COMMENT "ExactAudioCopy v0.95b4"
PERFORMER "Boney M"
TITLE "Oceans Of Fantasy"
FILE "Boney M - Oceans Of Fantasy.ape" WAVE
  TRACK 01 AUDIO
    TITLE "Let It All Be Music"
    PERFORMER "Boney M"
    INDEX 00 00:00:00
    INDEX 01 00:00:32
  TRACK 02 AUDIO
    TITLE "Gotta Go Home"
    PERFORMER "Boney M"
    FLAGS DCP
    INDEX 00 04:53:28
    INDEX 01 04:56:10
  TRACK 03 AUDIO
    TITLE "Bye Bye Bluebird"
    PERFORMER "Boney M"
    FLAGS DCP
    INDEX 00 08:39:31
    INDEX 01 08:42:67
  TRACK 04 AUDIO
    TITLE "Bahama Mama"
    PERFORMER "Boney M"
    FLAGS DCP
    INDEX 00 13:31:09
    INDEX 01 13:33:60
  TRACK 05 AUDIO
    TITLE "Hold On I'm Coming"
    PERFORMER "Boney M"
    FLAGS DCP
    INDEX 00 16:48:70
    INDEX 01 16:51:55
  TRACK 06 AUDIO
    TITLE "Two Of Us"
    PERFORMER "Boney M"
    FLAGS DCP
    INDEX 00 20:26:02
    INDEX 01 20:29:22
  TRACK 07 AUDIO
    TITLE "Ribbons Of Blue"
    PERFORMER "Boney M"
    FLAGS DCP
    INDEX 00 23:43:26
    INDEX 01 23:46:10
  TRACK 08 AUDIO
    TITLE "Oceans Of Fantasy"
    PERFORMER "Boney M"
    FLAGS DCP
    INDEX 00 25:44:34
    INDEX 01 25:46:30
  TRACK 09 AUDIO
    TITLE "El Lute"
    PERFORMER "Boney M"
    FLAGS DCP
    INDEX 00 30:51:11
    INDEX 01 30:54:07
  TRACK 10 AUDIO
    TITLE "No More Chain Gang"
    PERFORMER "Boney M"
    FLAGS DCP
    INDEX 00 36:49:17
    INDEX 01 36:51:40
  TRACK 11 AUDIO
    TITLE "I'm Born Again"
    PERFORMER "Boney M"
    FLAGS DCP
    INDEX 00 42:12:65
    INDEX 01 42:16:05
  TRACK 12 AUDIO
    TITLE "No Time To Lose"
    PERFORMER "Boney M"
    FLAGS DCP
    INDEX 00 46:23:57
    INDEX 01 46:25:60
  TRACK 13 AUDIO
    TITLE "Calendar Song (January, February, March...)"
    PERFORMER "Boney M"
    FLAGS DCP
    INDEX 00 49:20:27
    INDEX 01 49:22:50
  TRACK 14 AUDIO
    TITLE "I See A Boat On The River"
    PERFORMER "Boney M"
    FLAGS DCP
    INDEX 00 52:02:61
    INDEX 01 52:04:59
  TRACK 15 AUDIO
    TITLE "My Friend Jack"
    PERFORMER "Boney M"
    FLAGS DCP
    INDEX 00 56:43:64
    INDEX 01 56:46:29
-
Яндекс.Метрика
Рейтинг@Mail.ru