Black - Wonderful Life (2013) Expanded Edition, 2CD [FLAC|Lossless]<Pop, Synth-pop>

 

Создавать темы 17-Дек-2014 11:52

-Black - Wonderful Life (Expanded Edition) (2013)- Год: 2013
Жанр: Pop, Synth-pop
Лейбл: Universal, A&M Records. Made in UK.
Каталог #: UMCREP2022
Продолжительность: 01:53:41-Кодек: FLAC
Тип рипа: image + .cue
Битрейт: Lossless-Трек лист:
CD1
01. Wonderful Life [04:50]
02. Everything's Coming Up Roses [04:08]
03. Sometimes For The Asking [04:11]
04. Finder [04:15]
05. Paradise [04:53]
06. I'm Not Afraid [05:02]
07. I Just Grew Tired [04:16]
08. Blue [03:39]
09. Just Making Memories [04:26]
10. Sweetest Smile [05:20]
11. Ravel In The Rain [03:49]
12. Leave Yourself Alone [04:30]
13. Sixteens [03:55]
14. It's Not You Lady Jane [03:27]
15. Hardly Star-Crossed Lovers [02:51]
Продолжительность: 01:03:39-CD2
01. Wonderful Life (Alternate Version) [04:50]
02. Birthday Night [05:11]
03. Dagger Reel [05:00]
04. Sometimes For The Asking (New Version) [05:03]
05. Sometimes For The Asking (Echo Bass and Sax) [04:56]
06. Everything's Coming Up Roses (The Fairly Mental Mix) [04:27]
07. Have It Your Own Way [03:09]
08. My Lover [04:04]
09. Life Calls [03:53]
10. Had Enough [05:01]
11. All We Need Is The Money [04:24]
Продолжительность: 00:50:02-

Отчёт ЕАС&#58;

Exact Audio Copy V0.99 prebeta 4 from 23. January 2008
EAC extraction logfile from 9. May 2013, 18:05
Black / Wonderful Life  - 2013, Deluxe Edition (CD One)
Used drive  : hp      CDDVDW SH-216BB   Adapter: 0  ID: 0
Read mode               : Secure
Utilize accurate stream : Yes
Defeat audio cache      : Yes
Make use of C2 pointers : No
Read offset correction                      : 6
Overread into Lead-In and Lead-Out          : No
Fill up missing offset samples with silence : Yes
Delete leading and trailing silent blocks   : No
Null samples used in CRC calculations       : Yes
Used interface                              : Native Win32 interface for Win NT & 2000
Used output format              : Monkey's Audio Lossless Encoder
Selected bitrate                : High Lossless Compression
Quality                         : High
Add ID3 tag                     : No
Command line compressor         : C:\Program Files (x86)\Monkey's Audio\MAC.exe
Additional command line options : -v
TOC of the extracted CD
     Track |   Start  |  Length  | Start sector | End sector
    ---------------------------------------------------------
        1  |  0:00.00 |  4:50.06 |         0    |    21755
        2  |  4:50.06 |  4:08.00 |     21756    |    40355
        3  |  8:58.06 |  4:11.09 |     40356    |    59189
        4  | 13:09.15 |  4:15.51 |     59190    |    78365
        5  | 17:24.66 |  4:53.72 |     78366    |   100412
        6  | 22:18.63 |  5:02.68 |    100413    |   123130
        7  | 27:21.56 |  4:16.54 |    123131    |   142384
        8  | 31:38.35 |  3:39.16 |    142385    |   158825
        9  | 35:17.51 |  4:26.52 |    158826    |   178827
       10  | 39:44.28 |  5:20.34 |    178828    |   202861
       11  | 45:04.62 |  3:49.10 |    202862    |   220046
       12  | 48:53.72 |  4:30.59 |    220047    |   240355
       13  | 53:24.56 |  3:55.66 |    240356    |   258046
       14  | 57:20.47 |  3:27.61 |    258047    |   273632
       15  | 60:48.33 |  2:51.29 |    273633    |   286486
Range status and errors
Selected range
     Filename C:\Users\Arthur\Desktop\Black - Wonderful Life  - 2013, Deluxe Edition (CD One).wav
     Peak level 97.0 %
     Range quality 100.0 %
     Test CRC 39CDD7F0
     Copy CRC 39CDD7F0
     Copy OK
No errors occurred
AccurateRip summary
Track  1  not present in database
Track  2  not present in database
Track  3  not present in database
Track  4  not present in database
Track  5  not present in database
Track  6  not present in database
Track  7  not present in database
Track  8  not present in database
Track  9  not present in database
Track 10  not present in database
Track 11  not present in database
Track 12  not present in database
Track 13  not present in database
Track 14  not present in database
Track 15  not present in database
None of the tracks are present in the AccurateRip database
End of status report

Отчёт auCDtect Task manager&#58;

-----------------------
DON'T MODIFY THIS FILE
-----------------------
PERFORMER: auCDtect Task Manager, ver. 1.6.0 RC1 build 1.6.0.1
Copyright (c) 2008-2010 y-soft. All rights reserved
http://y-soft.org
ANALYZER: auCDtect: CD records authenticity detector, version 0.8.2
Copyright (c) 2004 Oleg Berngardt. All rights reserved.
Copyright (c) 2004 Alexander Djourik. All rights reserved.
FILE: Black - Wonderful Life  - 2013, Deluxe Edition (CD One).flac
  Size: 425931286 Hash: 335CE2F33FBFFD5CD654AFF8EB9E288B Accuracy: -m0
  Conclusion: CDDA 100%
  Signature: ACA8B95BF7931824C9424CBEF3D978CBAEF06C1C

Содержание индексной карты (.CUE&#41;

REM GENRE Pop
REM DATE 1987
REM DISCID BC0EEB0F
REM COMMENT "ExactAudioCopy v0.99pb4"
PERFORMER "Black"
TITLE "Wonderful Life  - 2013, Deluxe Edition (CD One)"
FILE "Black - Wonderful Life  - 2013, Deluxe Edition (CD One).flac" WAVE
  TRACK 01 AUDIO
    TITLE "Wonderful Life"
    PERFORMER "Black"
    INDEX 01 00:00:00
  TRACK 02 AUDIO
    TITLE "Everything's Coming Up Roses"
    PERFORMER "Black"
    INDEX 00 04:48:08
    INDEX 01 04:50:06
  TRACK 03 AUDIO
    TITLE "Sometimes For The Asking"
    PERFORMER "Black"
    INDEX 00 08:55:63
    INDEX 01 08:58:06
  TRACK 04 AUDIO
    TITLE "Finder"
    PERFORMER "Black"
    INDEX 00 13:07:02
    INDEX 01 13:09:15
  TRACK 05 AUDIO
    TITLE "Paradise"
    PERFORMER "Black"
    INDEX 00 17:22:43
    INDEX 01 17:24:66
  TRACK 06 AUDIO
    TITLE "I'm Not Afraid"
    PERFORMER "Black"
    INDEX 00 22:16:32
    INDEX 01 22:18:63
  TRACK 07 AUDIO
    TITLE "I Just Grew Tired"
    PERFORMER "Black"
    INDEX 00 27:19:71
    INDEX 01 27:21:56
  TRACK 08 AUDIO
    TITLE "Blue"
    PERFORMER "Black"
    INDEX 00 31:36:67
    INDEX 01 31:38:35
  TRACK 09 AUDIO
    TITLE "Just Making Memories"
    PERFORMER "Black"
    INDEX 00 35:16:10
    INDEX 01 35:17:51
  TRACK 10 AUDIO
    TITLE "Sweetest Smile"
    PERFORMER "Black"
    INDEX 00 39:42:15
    INDEX 01 39:44:28
  TRACK 11 AUDIO
    TITLE "Ravel In The Rain"
    PERFORMER "Black"
    INDEX 00 45:03:02
    INDEX 01 45:04:62
  TRACK 12 AUDIO
    TITLE "Leave Yourself Alone"
    PERFORMER "Black"
    INDEX 00 48:51:63
    INDEX 01 48:53:72
  TRACK 13 AUDIO
    TITLE "Sixteens"
    PERFORMER "Black"
    INDEX 00 53:23:30
    INDEX 01 53:24:56
  TRACK 14 AUDIO
    TITLE "It's Not You Lady Jane"
    PERFORMER "Black"
    INDEX 00 57:18:41
    INDEX 01 57:20:47
  TRACK 15 AUDIO
    TITLE "Hardly Star-Crossed Lovers"
    PERFORMER "Black"
    INDEX 00 60:46:54
    INDEX 01 60:48:33

Сверка с АккуратРип

[CUETools log; Date: 10.06.2013 18:53:05; Version: 2.1.4]
[CTDB TOCID: GGaGyWhSwaa6i1ISkbjck9.S8qs-] found.
Track | CTDB Status
  1   | (1/1) Accurately ripped
  2   | (1/1) Accurately ripped
  3   | (1/1) Accurately ripped
  4   | (1/1) Accurately ripped
  5   | (1/1) Accurately ripped
  6   | (1/1) Accurately ripped
  7   | (1/1) Accurately ripped
  8   | (1/1) Accurately ripped
  9   | (1/1) Accurately ripped
10   | (1/1) Accurately ripped
11   | (1/1) Accurately ripped
12   | (1/1) Accurately ripped
13   | (1/1) Accurately ripped
14   | (1/1) Accurately ripped
15   | (1/1) Accurately ripped
[AccurateRip ID: 0024632b-019aa4eb-bc0eeb0f] found.
Track   [  CRC   |   V2   ] Status
01     [01e526fa|7b2a9d96] (1+0/1) Accurately ripped
02     [798a4581|c0560ff3] (1+0/1) Accurately ripped
03     [618cb501|fe7c7a75] (1+0/1) Accurately ripped
04     [e5bebc9b|7d87fdbe] (1+0/1) Accurately ripped
05     [abbe0b85|d4106db4] (1+0/1) Accurately ripped
06     [81f77bf1|6b8b9528] (1+0/1) Accurately ripped
07     [7ec67ac5|bd89979c] (1+0/1) Accurately ripped
08     [3e60b336|3bdec406] (1+0/1) Accurately ripped
09     [50e25319|47f38987] (1+0/1) Accurately ripped
10     [da36f13b|d3840f66] (1+0/1) Accurately ripped
11     [2252c02b|45e685af] (1+0/1) Accurately ripped
12     [ec272dc5|a3c5ad73] (1+0/1) Accurately ripped
13     [452bdb17|e83ba409] (1+0/1) Accurately ripped
14     [50aab0a1|8b43f5c2] (1+0/1) Accurately ripped
15     [d3bbb1ae|52952f70] (1+0/1) Accurately ripped
Track Peak [ CRC32  ] [W/O NULL] [  LOG   ]
--   97,0 [39CDD7F0] [C0339F3E]   CRC32
01   96,5 [52945E2A] [352942F6]
02   96,5 [C8817352] [26801761]
03   96,5 [33A658FC] [2F00C45F]
04   97,0 [C71DE6FE] [84CF0A65]
05   96,5 [B2EBDB09] [A763ED54]
06   96,5 [3EF62565] [1384CF5F]
07   96,5 [EF224A55] [A6D0623E]
08   96,5 [9C3A862D] [2EFDB637]
09   92,2 [45963B20] [C4014A1C]
10   96,5 [49D41E28] [6C5C89F0]
11   89,1 [E4EBE63D] [722ED176]
12   96,5 [58A97436] [AA86AF5B]
13   97,0 [AECF1240] [ACC58AB5]
14   96,5 [4A06929E] [7E525257]
15   88,7 [C13F9C1D] [477B3AFD]

Отчёт ЕАС&#58;

Exact Audio Copy V0.99 prebeta 4 from 23. January 2008
EAC extraction logfile from 9. May 2013, 19:32
Black / Wonderful Life  - 2013, Deluxe Edition (CD Two)
Used drive  : hp      CDDVDW SH-216BB   Adapter: 0  ID: 0
Read mode               : Secure
Utilize accurate stream : Yes
Defeat audio cache      : Yes
Make use of C2 pointers : No
Read offset correction                      : 6
Overread into Lead-In and Lead-Out          : No
Fill up missing offset samples with silence : Yes
Delete leading and trailing silent blocks   : No
Null samples used in CRC calculations       : Yes
Used interface                              : Native Win32 interface for Win NT & 2000
Used output format              : Monkey's Audio Lossless Encoder
Selected bitrate                : High Lossless Compression
Quality                         : High
Add ID3 tag                     : No
Command line compressor         : C:\Program Files (x86)\Monkey's Audio\MAC.exe
Additional command line options : -v
TOC of the extracted CD
     Track |   Start  |  Length  | Start sector | End sector
    ---------------------------------------------------------
        1  |  0:00.00 |  4:50.06 |         0    |    21755
        2  |  4:50.06 |  5:11.04 |     21756    |    45084
        3  | 10:01.10 |  5:00.59 |     45085    |    67643
        4  | 15:01.69 |  5:03.29 |     67644    |    90397
        5  | 20:05.23 |  4:56.05 |     90398    |   112602
        6  | 25:01.28 |  4:27.51 |    112603    |   132678
        7  | 29:29.04 |  3:09.09 |    132679    |   146862
        8  | 32:38.13 |  4:04.19 |    146863    |   165181
        9  | 36:42.32 |  3:53.49 |    165182    |   182705
       10  | 40:36.06 |  5:01.22 |    182706    |   205302
       11  | 45:37.28 |  4:24.66 |    205303    |   225168
Range status and errors
Selected range
     Filename C:\Users\Arthur\Desktop\Black - Wonderful Life  - 2013, Deluxe Edition (CD Two).wav
     Peak level 97.0 %
     Range quality 100.0 %
     Test CRC 3B9231ED
     Copy CRC 3B9231ED
     Copy OK
No errors occurred
AccurateRip summary
Track  1  not present in database
Track  2  not present in database
Track  3  not present in database
Track  4  not present in database
Track  5  not present in database
Track  6  not present in database
Track  7  not present in database
Track  8  not present in database
Track  9  not present in database
Track 10  not present in database
Track 11  not present in database
None of the tracks are present in the AccurateRip database
End of status report

Отчёт auCDtect Task manager&#58;

-----------------------
DON'T MODIFY THIS FILE
-----------------------
PERFORMER: auCDtect Task Manager, ver. 1.6.0 RC1 build 1.6.0.1
Copyright (c) 2008-2010 y-soft. All rights reserved
http://y-soft.org
ANALYZER: auCDtect: CD records authenticity detector, version 0.8.2
Copyright (c) 2004 Oleg Berngardt. All rights reserved.
Copyright (c) 2004 Alexander Djourik. All rights reserved.
FILE: Black - Wonderful Life  - 2013, Deluxe Edition (CD Two).flac
  Size: 350364005 Hash: D35590481D960AC6F33B4A7BC52A28B0 Accuracy: -m0
  Conclusion: CDDA 99%
  Signature: B17DBC1B4506172F92DF0574CE5284F4D316286D

Содержание индексной карты (.CUE&#41;

REM GENRE Pop
REM DATE 1987
REM DISCID 850BBA0B
REM COMMENT "ExactAudioCopy v0.99pb4"
PERFORMER "Black"
TITLE "Wonderful Life  - 2013, Deluxe Edition (CD Two)"
FILE "Black - Wonderful Life  - 2013, Deluxe Edition (CD Two).flac" WAVE
  TRACK 01 AUDIO
    TITLE "Wonderful Life (Alternate Version)"
    PERFORMER "Black"
    INDEX 01 00:00:00
  TRACK 02 AUDIO
    TITLE "Birthday Night"
    PERFORMER "Black"
    INDEX 00 04:48:23
    INDEX 01 04:50:06
  TRACK 03 AUDIO
    TITLE "Dagger Reel"
    PERFORMER "Black"
    INDEX 00 09:59:27
    INDEX 01 10:01:10
  TRACK 04 AUDIO
    TITLE "Sometimes For The Asking (New Version)"
    PERFORMER "Black"
    INDEX 00 15:00:11
    INDEX 01 15:01:69
  TRACK 05 AUDIO
    TITLE "Sometimes For The Asking (Echo Bass and Sax)"
    PERFORMER "Black"
    INDEX 00 20:03:40
    INDEX 01 20:05:23
  TRACK 06 AUDIO
    TITLE "Everything's Coming Up Roses (The Fairly Mental Mix)"
    PERFORMER "Black"
    INDEX 00 24:59:45
    INDEX 01 25:01:28
  TRACK 07 AUDIO
    TITLE "Have It Your Own Way"
    PERFORMER "Black"
    INDEX 00 29:27:21
    INDEX 01 29:29:04
  TRACK 08 AUDIO
    TITLE "My Lover"
    PERFORMER "Black"
    INDEX 00 32:36:30
    INDEX 01 32:38:13
  TRACK 09 AUDIO
    TITLE "Life Calls"
    PERFORMER "Black"
    INDEX 00 36:40:49
    INDEX 01 36:42:32
  TRACK 10 AUDIO
    TITLE "Had Enough"
    PERFORMER "Black"
    INDEX 00 40:34:23
    INDEX 01 40:36:06
  TRACK 11 AUDIO
    TITLE "All We Need Is The Money"
    PERFORMER "Black"
    INDEX 00 45:35:45
    INDEX 01 45:37:28

Сверка с АккуратРип

[CUETools log; Date: 10.06.2013 18:54:53; Version: 2.1.4]
[CTDB TOCID: msYqYV04QftznBqfCHt.pIyQYcU-] found.
Track | CTDB Status
  1   | (1/1) Accurately ripped
  2   | (1/1) Accurately ripped
  3   | (1/1) Accurately ripped
  4   | (1/1) Accurately ripped
  5   | (1/1) Accurately ripped
  6   | (1/1) Accurately ripped
  7   | (1/1) Accurately ripped
  8   | (1/1) Accurately ripped
  9   | (1/1) Accurately ripped
10   | (1/1) Accurately ripped
11   | (1/1) Accurately ripped
[AccurateRip ID: 00154abc-00b669ec-850bba0b] found.
Track   [  CRC   |   V2   ] Status
01     [d1955dbf|e40e77ac] (1+0/1) Accurately ripped
02     [401d63d7|2226e28f] (1+0/1) Accurately ripped
03     [5a25a911|4cd08d21] (1+0/1) Accurately ripped
04     [3788f198|3cfcd6e4] (1+0/1) Accurately ripped
05     [410f0347|0cefba0c] (1+0/1) Accurately ripped
06     [94a191ba|59594970] (1+0/1) Accurately ripped
07     [a69a3b76|80ec1bc1] (1+0/1) Accurately ripped
08     [9482a5ae|3ca53f92] (1+0/1) Accurately ripped
09     [787289ec|007cf682] (1+0/1) Accurately ripped
10     [2bd14ee6|3d837859] (1+0/1) Accurately ripped
11     [d3012dfe|2801c594] (1+0/1) Accurately ripped
Track Peak [ CRC32  ] [W/O NULL] [  LOG   ]
--   97,0 [3B9231ED] [13324048]   CRC32
01   97,0 [7E7A0FC6] [B99D839B]
02   94,1 [520248A4] [E13ADE23]
03   97,0 [A88F8825] [CABF9AAC]
04   97,0 [72F86F47] [9CF7DD00]
05   95,7 [BB71E7E0] [9A022286]
06   97,0 [262F3C80] [B5EF21EB]
07   97,0 [955C24A5] [0BF1B299]
08   88,8 [BF6D9B9D] [33D3E3A0]
09   97,0 [8CD53EA6] [B5C2CE14]
10   96,6 [72FEAA6D] [4E1894A4]
11   97,0 [BF20ED80] [567973C3]
-
Яндекс.Метрика
Рейтинг@Mail.ru