Дмитрий Прянов - Потерялись мы с тобой (2013) [FLAC|Lossless]<Шансон>

 

Создавать темы 16-Дек-2014 20:20

-Дмитрий Прянов - Потерялись мы с тобой (2013)- Год: 2013
Страна-производитель диска: Россия
Издатель (лейбл): КВАДРО-ДИСК
Номер по каталогу: KTL 13-049
Жанр: Шансон
Продолжительность: 00:55:34
Кодек: FLAC
Битрейт: Lossless
Тип рипа: image+.cue
Треклист:
01. Ляна (3:25)
02. Потерялись мы с тобой (3:23)
03. Женщина моя (4:08)
04. Я скучаю (3:23)
05. Листья кружит ветер (3:34)
06. Первый снег (4:04)
07. Любимая (3:11)
08. Больно (3:22)
09. Три малиновых рассвета (3:57)
10. Хочу обнять тебя (3:39)
11. Разбиты зеркала (4:13)
12. Так бывает (4:09)
13. Ледяные дожди (4:19)
14. В рождественскую ночь (3:26)
15. Пилигримы (3:20)

Отчёт ЕАС&#58;

Exact Audio Copy V1.0 beta 3 from 29. August 2011
Отчёт EAC об извлечении, выполненном 04. марта 2014, 11:02
Дмитрий Прянов / Потерялись мы с тобой
Дисковод: ASUS    DRW-24B3ST   Adapter: 3  ID: 0
Режим чтения                 : Достоверность
Использование точного потока : Да
Отключение кэша аудио        : Да
Использование указателей C2  : Нет
Коррекция смещения при чтении                     : 6
Способность читать области Lead-in и Lead-out     : Нет
Заполнение пропущенных сэмплов тишиной            : Да
Удаление блоков с тишиной в начале и конце        : Нет
При вычислениях CRC использовались нулевые сэмплы : Да
Интерфейс                                         : Встроенный Win32-интерфейс для Win NT/2000
Выходной формат : Внутренние WAV-операции
Формат сэмплов  : 44.100 Гц; 16 бит; стерео
TOC извлечённого CD
     Трек |   Старт  | Длительность | Начальный сектор | Конечный сектор
    ---------------------------------------------------------------------
       1  |  0:00.00 |    3:25.14   |           0      |      15388
       2  |  3:25.14 |    3:22.67   |       15389      |      30605
       3  |  6:48.06 |    4:07.46   |       30606      |      49176
       4  | 10:55.52 |    3:23.20   |       49177      |      64421
       5  | 14:18.72 |    3:33.66   |       64422      |      80462
       6  | 17:52.63 |    4:04.16   |       80463      |      98778
       7  | 21:57.04 |    3:11.14   |       98779      |     113117
       8  | 25:08.18 |    3:22.29   |      113118      |     128296
       9  | 28:30.47 |    3:56.74   |      128297      |     146070
      10  | 32:27.46 |    3:39.28   |      146071      |     162523
      11  | 36:06.74 |    4:13.29   |      162524      |     181527
      12  | 40:20.28 |    4:08.74   |      181528      |     200201
      13  | 44:29.27 |    4:19.36   |      200202      |     219662
      14  | 48:48.63 |    3:25.51   |      219663      |     235088
      15  | 52:14.39 |    3:19.51   |      235089      |     250064
Характеристики диапазона извлечения и сообщения об ошибках
Выбранный диапазон
     Имя файла Дмитрий Прянов - Потерялись мы с тобой.wav
     Пиковый уровень 100.0 %
     Скорость извлечения 5.7 X
     Качество диапазона 100.0 %
     CRC теста 34D0DAC1
     CRC копии 34D0DAC1
     Копирование... OK
Ошибок не произошло
AccurateRip: сводка
Трек  1  отсутствует в базе данных
Трек  2  отсутствует в базе данных
Трек  3  отсутствует в базе данных
Трек  4  отсутствует в базе данных
Трек  5  отсутствует в базе данных
Трек  6  отсутствует в базе данных
Трек  7  отсутствует в базе данных
Трек  8  отсутствует в базе данных
Трек  9  отсутствует в базе данных
Трек 10  отсутствует в базе данных
Трек 11  отсутствует в базе данных
Трек 12  отсутствует в базе данных
Трек 13  отсутствует в базе данных
Трек 14  отсутствует в базе данных
Трек 15  отсутствует в базе данных
Ни одного трека нет в базе AccurateRip
Конец отчёта
==== Контрольная сумма отчёта 2068BE715202D4A3A59DA090DB315CBFB890C1E1A629CC8ABC537FC2DE1A0258 ====

Отчёт auCDtect Task manager&#58;

-----------------------
DON'T MODIFY THIS FILE
-----------------------
PERFORMER: auCDtect Task Manager, ver. 1.5.1RC6 build 1.5.1.7
Copyright (c) 2008-2010 y-soft. All rights reserved
http://y-soft.org
ANALYZER: auCDtect: CD records authenticity detector, version 0.8.2
Copyright (c) 2004 Oleg Berngardt. All rights reserved.
Copyright (c) 2004 Alexander Djourik. All rights reserved.
FILE: Дмитрий Прянов - Потерялись мы с тобой.flac
  Size: 398440449 Hash: FE2A952D0BCC8C6B1C918AE31973C982 Accuracy: -m0
  Conclusion: CDDA 62%
  Signature: 7204024A6BE4E9AFDD97F6542B770E495380E003
Время раздачи: 24/7 до 5 скачавших-

Поглощение/вытеснение
Только с согласия релизера

DesideriuM
Яндекс.Метрика
Рейтинг@Mail.ru