Борис Драгилев - Беда и Удача (2005) [FLAC|Lossless]<Шансон>

 

Создавать темы 16-Дек-2014 20:20

-Борис Драгилев - Беда и Удача (2005)- Год: 2005
Страна-производитель диска: Россия
Издатель (лейбл): Фирма грамзаписи "НИКИТИН"
Номер по каталогу: ТФН - CD263/05
Жанр: Шансон
Продолжительность: 00:43:46
Кодек: FLAC
Битрейт: Lossless
Тип рипа: image+.cue
Треклист:
01. Беда и удача (3:43)
02. Порт (3:51)
03. Девочки (3:25)
04. Ты с кем? (3:16)
05. Про нее (2:52)
06. Беззаконие - закон (3:08)
07. Мне 50, ей 20 (3:27)
08. Зачем же мучиться? (4:06)
09. Когда 2/3 прожито (3:16)
10. В пробке (3:29)
11. Голубка (новая версия) (4:52)
12. Странный шансонье (0:52)
13. День Тельца (3:29)

Отчёт ЕАС&#58;

Exact Audio Copy V1.0 beta 3 from 29. August 2011
Отчёт EAC об извлечении, выполненном 02. марта 2014, 21:54
Борис Драгилев / Беда и Удача
Дисковод: ASUS    DRW-24B3ST   Adapter: 3  ID: 0
Режим чтения                 : Достоверность
Использование точного потока : Да
Отключение кэша аудио        : Да
Использование указателей C2  : Нет
Коррекция смещения при чтении                     : 6
Способность читать области Lead-in и Lead-out     : Нет
Заполнение пропущенных сэмплов тишиной            : Да
Удаление блоков с тишиной в начале и конце        : Нет
При вычислениях CRC использовались нулевые сэмплы : Да
Интерфейс                                         : Встроенный Win32-интерфейс для Win NT/2000
Выходной формат : Внутренние WAV-операции
Формат сэмплов  : 44.100 Гц; 16 бит; стерео
TOC извлечённого CD
     Трек |   Старт  | Длительность | Начальный сектор | Конечный сектор
    ---------------------------------------------------------------------
       1  |  0:00.00 |    3:42.43   |           0      |      16692
       2  |  3:42.43 |    3:51.18   |       16693      |      34035
       3  |  7:33.61 |    3:24.52   |       34036      |      49387
       4  | 10:58.38 |    3:15.60   |       49388      |      64072
       5  | 14:14.23 |    2:52.11   |       64073      |      76983
       6  | 17:06.34 |    3:07.54   |       76984      |      91062
       7  | 20:14.13 |    3:26.54   |       91063      |     106566
       8  | 23:40.67 |    4:05.67   |      106567      |     125008
       9  | 27:46.59 |    3:15.46   |      125009      |     139679
      10  | 31:02.30 |    3:29.26   |      139680      |     155380
      11  | 34:31.56 |    4:52.30   |      155381      |     177310
      12  | 39:24.11 |    0:52.19   |      177311      |     181229
      13  | 40:16.30 |    3:29.29   |      181230      |     196933
Характеристики диапазона извлечения и сообщения об ошибках
Выбранный диапазон
     Имя файла Борис Драгилев - Беда и Удача.wav
     Пиковый уровень 97.2 %
     Скорость извлечения 5.2 X
     Качество диапазона 99.9 %
     CRC теста 6B3729F1
     CRC копии 6B3729F1
     Копирование... OK
Ошибок не произошло
AccurateRip: сводка
Трек  1  : извлечено точно (доверие 1)  [5B28DBBC]  (AR v1)
Трек  2  : извлечено точно (доверие 1)  [037E6435]  (AR v1)
Трек  3  : извлечено точно (доверие 1)  [DA1B709A]  (AR v1)
Трек  4  : извлечено точно (доверие 1)  [8B7618E0]  (AR v1)
Трек  5  : извлечено точно (доверие 1)  [3956E9CC]  (AR v1)
Трек  6  : извлечено точно (доверие 1)  [4A26BD57]  (AR v1)
Трек  7  : извлечено точно (доверие 1)  [E863E492]  (AR v1)
Трек  8  : извлечено точно (доверие 1)  [868EA3F0]  (AR v1)
Трек  9  : извлечено точно (доверие 1)  [3A874F78]  (AR v1)
Трек 10  : извлечено точно (доверие 1)  [13285042]  (AR v1)
Трек 11  : извлечено точно (доверие 1)  [135DE06E]  (AR v1)
Трек 12  : извлечено точно (доверие 1)  [0B72B486]  (AR v1)
Трек 13  : извлечено точно (доверие 1)  [0B18DEEC]  (AR v1)
Все треки извлечены точно
Конец отчёта
==== Контрольная сумма отчёта E877729100DC1100DFA0A5029D3CF7F5AF0FD12983D09771AF8F57A40A346171 ====

Отчёт auCDtect Task manager&#58;

-----------------------
DON'T MODIFY THIS FILE
-----------------------
PERFORMER: auCDtect Task Manager, ver. 1.5.1RC6 build 1.5.1.7
Copyright (c) 2008-2010 y-soft. All rights reserved
http://y-soft.org
ANALYZER: auCDtect: CD records authenticity detector, version 0.8.2
Copyright (c) 2004 Oleg Berngardt. All rights reserved.
Copyright (c) 2004 Alexander Djourik. All rights reserved.
FILE: Борис Драгилев - Беда и Удача.flac
  Size: 332250689 Hash: E23842C6B04731D03A3C26C92E3AFD55 Accuracy: -m0
  Conclusion: CDDA 100%
  Signature: 5E2F20D38CBA22B8F98E7D63871B7CAFD0B3A8E5
-
Яндекс.Метрика
Рейтинг@Mail.ru