[ Сегодня на трекере фрилич! Идет свободное скачивание без начисления Download ]

Сергей Кама - Зеркало (1996) [FLAC|Lossless]<Шансон>

 

Создавать темы 16-Дек-2014 20:20

-Сергей Кама - Зеркало (1996)- Год: 1996
Жанр: Шансон
Страна-производитель диска: Россия
Издатель (лейбл): Master Sound
Номер по каталогу: MS 103
Продолжительность: 00:49:46
Кодек: FLAC
Битрейт: Lossless
Тип рипа: image+.cue
Треклист:
01. Зеркало (3:53)
02. Кошка (3:14)
03. Прощай (3:38)
04. Без тебя (4:11)
05. Такси (3:00)
06. Черное море (4:14)
07. Лели-лели (4:14)
08. Чёрный ворон (4:18)
09. Вальс (3:06)
10. Два клена (4:17)
11. Улыбка (3:13)
12. Осень (3:23)
13. Февраль (5:04)

Отчёт ЕАС&#58;

Exact Audio Copy V1.0 beta 3 from 29. August 2011
Отчёт EAC об извлечении, выполненном 11. марта 2014, 21:15
Сергей Кама / Зеркало
Дисковод: ASUS    DRW-24B3ST   Adapter: 1  ID: 1
Режим чтения                 : Достоверность
Использование точного потока : Да
Отключение кэша аудио        : Да
Использование указателей C2  : Нет
Коррекция смещения при чтении                     : 6
Способность читать области Lead-in и Lead-out     : Нет
Заполнение пропущенных сэмплов тишиной            : Да
Удаление блоков с тишиной в начале и конце        : Нет
При вычислениях CRC использовались нулевые сэмплы : Да
Интерфейс                                         : Встроенный Win32-интерфейс для Win NT/2000
Выходной формат : Внутренние WAV-операции
Формат сэмплов  : 44.100 Гц; 16 бит; стерео
TOC извлечённого CD
     Трек |   Старт  | Длительность | Начальный сектор | Конечный сектор
    ---------------------------------------------------------------------
       1  |  0:00.55 |    3:53.32   |          55      |      17561
       2  |  3:54.12 |    3:13.48   |       17562      |      32084
       3  |  7:07.60 |    3:38.32   |       32085      |      48466
       4  | 10:46.17 |    4:10.53   |       48467      |      67269
       5  | 14:56.70 |    3:00.12   |       67270      |      80781
       6  | 17:57.07 |    4:14.25   |       80782      |      99856
       7  | 22:11.32 |    4:14.18   |       99857      |     118924
       8  | 26:25.50 |    4:17.70   |      118925      |     138269
       9  | 30:43.45 |    3:06.17   |      138270      |     152236
      10  | 33:49.62 |    4:17.25   |      152237      |     171536
      11  | 38:07.12 |    3:12.63   |      171537      |     185999
      12  | 41:20.00 |    3:22.67   |      186000      |     201216
      13  | 44:42.67 |    5:04.10   |      201217      |     224026
Характеристики диапазона извлечения и сообщения об ошибках
Выбранный диапазон
     Имя файла Кама Сергей\Сергей Кама - Зеркало - 1996\Сергей Кама - Зеркало.wav
     Пиковый уровень 100.0 %
     Скорость извлечения 5.6 X
     Качество диапазона 99.9 %
     CRC теста 72C2ECB1
     CRC копии 72C2ECB1
     Копирование... OK
Ошибок не произошло
AccurateRip: сводка
Трек  1  отсутствует в базе данных
Трек  2  отсутствует в базе данных
Трек  3  отсутствует в базе данных
Трек  4  отсутствует в базе данных
Трек  5  отсутствует в базе данных
Трек  6  отсутствует в базе данных
Трек  7  отсутствует в базе данных
Трек  8  отсутствует в базе данных
Трек  9  отсутствует в базе данных
Трек 10  отсутствует в базе данных
Трек 11  отсутствует в базе данных
Трек 12  отсутствует в базе данных
Трек 13  отсутствует в базе данных
Ни одного трека нет в базе AccurateRip
Конец отчёта
==== Контрольная сумма отчёта 0CA57677471E47725E92D4EC2F22D7D83A969E8512165F10F1D58DC3E8F74A2A ====

Отчёт auCDtect Task manager&#58;

-----------------------
DON'T MODIFY THIS FILE
-----------------------
PERFORMER: auCDtect Task Manager, ver. 1.5.1RC6 build 1.5.1.7
Copyright (c) 2008-2010 y-soft. All rights reserved
http://y-soft.org
ANALYZER: auCDtect: CD records authenticity detector, version 0.8.2
Copyright (c) 2004 Oleg Berngardt. All rights reserved.
Copyright (c) 2004 Alexander Djourik. All rights reserved.
FILE: Сергей Кама - Зеркало.flac
  Size: 341026257 Hash: FFA347B52CF7C76AA2AC5596D3B9C7DF Accuracy: -m0
  Conclusion: CDDA 100%
  Signature: 77A1777AB22B93F1F12EE4388BA67E2F4F449692
-
Яндекс.Метрика
Рейтинг@Mail.ru