Игорь Латышко - Я тебя люблю до умопомрачения... (2012) [FLAC|Lossless]<Шансон>

 

Создавать темы 16-Дек-2014 20:20

-Игорь Латышко - Я тебя люблю до умопомрачения... (2012)- Год: 2012
Жанр: Шансон
Страна-производитель диска: Россия
Издатель (лейбл): Artur Music
Номер по каталогу: CD 521
Продолжительность: 00:43:45
Кодек: FLAC
Битрейт: Lossless
Тип рипа: image+.cue
Треклист:
01. Я тебя люблю (3:42)
02. Ты неземная (3:49)
03. Украду тебя (3:19)
04. Иволга скажи мне (3:25)
05. Осень осень (4:04)
06. Твои глаза (4:21)
07. Белая черемуха (3:11)
08. Моя милая (3:01)
09. Самая красивая (3:33)
10. Вольная со мной (3:41)
11. Леди печаль (3:32)
12. Питер ночной (4:08)

Отчёт ЕАС&#58;

Exact Audio Copy V1.0 beta 3 from 29. August 2011
Отчёт EAC об извлечении, выполненном 7. марта 2014, 23:14
Игорь Латышко / Я люблю тебя до умопомрачения...
Дисковод: ASUS    DRW-1814BLT   Adapter: 2  ID: 0
Режим чтения                 : Достоверность
Использование точного потока : Да
Отключение кэша аудио        : Да
Использование указателей C2  : Нет
Коррекция смещения при чтении                     : 6
Способность читать области Lead-in и Lead-out     : Нет
Заполнение пропущенных сэмплов тишиной            : Да
Удаление блоков с тишиной в начале и конце        : Нет
При вычислениях CRC использовались нулевые сэмплы : Да
Интерфейс                                         : Встроенный Win32-интерфейс для Win NT/2000
Выходной формат : Внутренние WAV-операции
Формат сэмплов  : 44.100 Гц; 16 бит; стерео
TOC извлечённого CD
     Трек |   Старт  | Длительность | Начальный сектор | Конечный сектор
    ---------------------------------------------------------------------
       1  |  0:00.00 |    3:42.04   |           0      |      16653
       2  |  3:42.04 |    3:49.02   |       16654      |      33830
       3  |  7:31.06 |    3:18.51   |       33831      |      48731
       4  | 10:49.57 |    3:24.51   |       48732      |      64082
       5  | 14:14.33 |    4:03.73   |       64083      |      82380
       6  | 18:18.31 |    4:21.14   |       82381      |     101969
       7  | 22:39.45 |    3:10.64   |      101970      |     116283
       8  | 25:50.34 |    3:01.13   |      116284      |     129871
       9  | 28:51.47 |    3:33.13   |      129872      |     145859
      10  | 32:24.60 |    3:40.48   |      145860      |     162407
      11  | 36:05.33 |    3:31.50   |      162408      |     178282
      12  | 39:37.08 |    4:07.65   |      178283      |     196872
Характеристики диапазона извлечения и сообщения об ошибках
Выбранный диапазон
     Имя файла \Латышко Игорь\2012 - Игорь Латышко - Я люблю тебя до умопомрачения\Игорь Латышко - Я люблю тебя до умопомрачения....wav
     Пиковый уровень 98.2 %
     Скорость извлечения 4.2 X
     Качество диапазона 100.0 %
     CRC теста F13EECEC
     CRC копии F13EECEC
     Копирование... OK
Ошибок не произошло
AccurateRip: сводка
Трек  1  отсутствует в базе данных
Трек  2  отсутствует в базе данных
Трек  3  отсутствует в базе данных
Трек  4  отсутствует в базе данных
Трек  5  отсутствует в базе данных
Трек  6  отсутствует в базе данных
Трек  7  отсутствует в базе данных
Трек  8  отсутствует в базе данных
Трек  9  отсутствует в базе данных
Трек 10  отсутствует в базе данных
Трек 11  отсутствует в базе данных
Трек 12  отсутствует в базе данных
Ни одного трека нет в базе AccurateRip
Конец отчёта
==== Контрольная сумма отчёта BF9B77555B855E49B4FDFFA45D019E5A20E18B6CC7C7EDABAEE8D0DA350CC6D6 ====

Отчёт auCDtect Task manager&#58;

-----------------------
DON'T MODIFY THIS FILE
-----------------------
PERFORMER: auCDtect Task Manager, ver. 1.5.1RC6 build 1.5.1.7
Copyright (c) 2008-2010 y-soft. All rights reserved
http://y-soft.org
ANALYZER: auCDtect: CD records authenticity detector, version 0.8.2
Copyright (c) 2004 Oleg Berngardt. All rights reserved.
Copyright (c) 2004 Alexander Djourik. All rights reserved.
FILE: Игорь Латышко - Я люблю тебя до умопомрачения....flac
  Size: 336494702 Hash: 29CAE715F5A3F2E8071E05FF6F5E2ED2 Accuracy: -m0
  Conclusion: MPEG 95%
  Signature: 5412552EB931893DFB32C23C4DCB28EA402D20EC
-
Яндекс.Метрика
Рейтинг@Mail.ru