Сергей Пименов - От души (2008) [FLAC|Lossless]<Шансон>

 

Создавать темы 16-Дек-2014 20:20

-Сергей Пименов - От души (2008)- Год: 2008
Производитель диска: Россия - Студия "Ночное такси"
Жанр: Шансон
Продолжительность: 00:48:41
Кодек: FLAC
Битрейт: Lossless
Тип рипа: image+.cue
Треклист:
01. Вступление А.Фрумин (0:12)
02. Я уйду... (3:25)
03. Что эта жизнь?! (3:39)
04. Час-15 (4:07)
05. Жёнушка (3:17)
06. Ночной разговор (4:25)
07. Путч (3:01)
08. Заходите господа! (3:48)
09. Погадай цыганка... (3:25)
10. Биография (4:00)
11. Бабочки (4:18)
12. Катится трамвай (6:26)
13. Молитва (4:37)

Дополнительная информация&#58;

Сергей Пименов - автор и исполнитель из города Самары. Участник клуба песни "Шансон Самара".
Собственные произведения сочиняет и исполняет уже 9 лет. Участник песенных фестивалей в Самаре и их лауреат.
В Студию "Ночное такси" его привел известный автор-исполнитель Слава Бобков, который очень высоко ценит его песни.
В основе предлагаемого альбома записи сделанные в 2006 году в Самаре.
В данной программе все песни спеты и сыграны в Студии "Ночное такси" в период с сентября 2007 по март 2008 г.г.
Это первый изданный альбом Сергея Пименова.
От издателя
Дорогие друзья!
В 2006 году с нами не стало Николая Серафимовича Резанова. Поклонники шансона, и я в их числе, прекрасно знают и почитают его неоспоримый талант. Среди многомиллионной аудитории не найдется человека, незнакомого с творчеством группы "Братья Жемчужные". Для меня большая честь находиться в студии "Ночное такси", где долгие годы работал Николай Серафимович. Когда-то планировалось записать пластинку при его возможном участии. Но.....
Теперь этот альбом посвящен его памяти! В этих песнях частичка моей души, поэтому альбом получил теплое и родное любому русскому человеку название.
От души! Ваш Сергей Пименов

Отчёт ЕАС&#58;

Exact Audio Copy V0.99 prebeta 5 from 4. May 2009
Отчёт EAC об извлечении, выполненном 19. марта 2014, 12:21
Сергей Пименов / От души. Памяти Николая Резанова
Дисковод: Optiarc DVD RW AD-5170A   Adapter: 0  ID: 1
Режим чтения                 : Достоверность
Использование точного потока : Да
Отключение кэша аудио        : Да
Использование указателей C2  : Нет
Коррекция смещения при чтении                     : 48
Способность читать области Lead-in и Lead-out     : Нет
Заполнение пропущенных сэмплов тишиной            : Да
Удаление блоков с тишиной в начале и конце        : Нет
При вычислениях CRC использовались нулевые сэмплы : Да
Интерфейс                                         : Встроенный Win32-интерфейс для Win NT/2000
Выходной формат : Внутренние WAV-операции
Формат сэмплов  : 44.100 Гц; 16 бит; стерео
TOC извлечённого CD
     Трек |   Старт  | Длительность | Начальный сектор | Конечный сектор
    ---------------------------------------------------------------------
       1  |  0:00.00 |    0:11.62   |           0      |        886
       2  |  0:11.62 |    3:25.36   |         887      |      16297
       3  |  3:37.23 |    3:39.14   |       16298      |      32736
       4  |  7:16.37 |    4:07.00   |       32737      |      51261
       5  | 11:23.37 |    3:16.48   |       51262      |      66009
       6  | 14:40.10 |    4:25.33   |       66010      |      85917
       7  | 19:05.43 |    3:01.20   |       85918      |      99512
       8  | 22:06.63 |    3:48.24   |       99513      |     116636
       9  | 25:55.12 |    3:24.38   |      116637      |     131974
      10  | 29:19.50 |    3:59.59   |      131975      |     149958
      11  | 33:19.34 |    4:18.16   |      149959      |     169324
      12  | 37:37.50 |    6:25.74   |      169325      |     198273
      13  | 44:03.49 |    4:37.05   |      198274      |     219053
Характеристики диапазона извлечения и сообщения об ошибках
Выбранный диапазон
     Имя файла \Сергей Пименов - От души (2008)\Сергей Пименов - От души. Памяти Николая Резанова.wav
     Пиковый уровень 98.9 %
     Качество диапазона 99.9 %
     CRC теста 537BF48F
     CRC копии 537BF48F
     Копирование... OK
Ошибок не произошло
AccurateRip: сводка
Трек  1  нет в базе данных
Трек  2  нет в базе данных
Трек  3  нет в базе данных
Трек  4  нет в базе данных
Трек  5  нет в базе данных
Трек  6  нет в базе данных
Трек  7  нет в базе данных
Трек  8  нет в базе данных
Трек  9  нет в базе данных
Трек 10  нет в базе данных
Трек 11  нет в базе данных
Трек 12  нет в базе данных
Трек 13  нет в базе данных
Ни одного трека нет в базе AccurateRip
Конец отчёта

Отчёт auCDtect Task manager&#58;

-----------------------
DON'T MODIFY THIS FILE
-----------------------
PERFORMER: auCDtect Task Manager, ver. 1.5.1RC6 build 1.5.1.7
Copyright (c) 2008-2010 y-soft. All rights reserved
http://y-soft.org
ANALYZER: auCDtect: CD records authenticity detector, version 0.8.2
Copyright (c) 2004 Oleg Berngardt. All rights reserved.
Copyright (c) 2004 Alexander Djourik. All rights reserved.
FILE: Сергей Пименов - От души. Памяти Николая Резанова.flac
  Size: 369003176 Hash: 8AF737BEF8B684347CB2BCB1366B9237 Accuracy: -m0
  Conclusion: CDDA 100%
  Signature: 6122ABD4ABC610B5F064A7266E4B19BC69D4FB62
-
Яндекс.Метрика
Рейтинг@Mail.ru