Геннадий Норд - Очередная ходка (2007) [FLAC|Lossless]<Шансон>

 

Создавать темы 16-Дек-2014 20:20

-Геннадий Норд - Очередная ходка (2007)- Год: 2007
Страна-производитель диска: Россия
Издатель (лейбл): Альфа рекордз
Номер по каталогу: AL - 087
Жанр: Шансон
Продолжительность: 01:19:12
Кодек: FLAC
Битрейт: Lossless
Тип рипа: image+.cue
Треклист:
01. Кончается лето (3:33)
02. Мороз 13 (3:02)
03. Привет, Мадам (4:40)
04. Привет, Мадам - 2 (3:50)
05. Очередная ходка (3:32)
06. Одинокие дымы (5:00)
07. Бутырка (3:33)
08. Семнадцатый барак (3:59)
09. Вологодский конвой (5:08)
10. Этапы (5:05)
11. Дружбан (3:10)
12. Илецкая зона (5:13)
13. Дождь (2:58)
14. Королева (3:31)
15. Зола (4:29)
16. Фрунзе, 77 (3:39)
17. Полярная звезда (3:07)
18. За запреткой (4:11)
19. Невпопад (3:12)
20. Летний вальс (4:19)

Отчёт ЕАС&#58;

Exact Audio Copy V0.99 prebeta 5 from 4. May 2009
Отчёт EAC об извлечении, выполненном 08. апреля 2014, 11:58
Геннадий Норд / Очередная ходка
Дисковод: _NEC    DVD_RW ND-3500AG   Adapter: 3  ID: 0
Режим чтения                 : Достоверность
Использование точного потока : Да
Отключение кэша аудио        : Да
Использование указателей C2  : Нет
Коррекция смещения при чтении                     : 48
Способность читать области Lead-in и Lead-out     : Нет
Заполнение пропущенных сэмплов тишиной            : Да
Удаление блоков с тишиной в начале и конце        : Нет
При вычислениях CRC использовались нулевые сэмплы : Да
Интерфейс                                         : Установленный внешний ASPI-интерфейс
Выходной формат : Внутренние WAV-операции
Формат сэмплов  : 44.100 Гц; 16 бит; стерео
TOC извлечённого CD
     Трек |   Старт  | Длительность | Начальный сектор | Конечный сектор
    ---------------------------------------------------------------------
       1  |  0:00.00 |    3:33.09   |           0      |      15983
       2  |  3:33.09 |    3:02.17   |       15984      |      29650
       3  |  6:35.26 |    4:39.50   |       29651      |      50625
       4  | 11:15.01 |    3:49.69   |       50626      |      67869
       5  | 15:04.70 |    3:31.74   |       67870      |      83768
       6  | 18:36.69 |    5:00.03   |       83769      |     106271
       7  | 23:36.72 |    3:32.59   |      106272      |     122230
       8  | 27:09.56 |    3:58.50   |      122231      |     140130
       9  | 31:08.31 |    5:07.74   |      140131      |     163229
      10  | 36:16.30 |    5:05.32   |      163230      |     186136
      11  | 41:21.62 |    3:10.33   |      186137      |     200419
      12  | 44:32.20 |    5:12.63   |      200420      |     223882
      13  | 49:45.08 |    2:58.29   |      223883      |     237261
      14  | 52:43.37 |    3:31.25   |      237262      |     253111
      15  | 56:14.62 |    4:29.08   |      253112      |     273294
      16  | 60:43.70 |    3:38.62   |      273295      |     289706
      17  | 64:22.57 |    3:06.44   |      289707      |     303700
      18  | 67:29.26 |    4:10.46   |      303701      |     322496
      19  | 71:39.72 |    3:12.07   |      322497      |     336903
      20  | 74:52.04 |    4:19.35   |      336904      |     356363
Характеристики диапазона извлечения и сообщения об ошибках
Выбранный диапазон
     Имя файла Геннадий Норд - Очередная ходка.wav
     Пиковый уровень 100.0 %
     Качество диапазона 99.9 %
     CRC копии 489DCC1D
     Копирование... OK
Ошибок не произошло
AccurateRip: сводка
Трек  1  нет в базе данных
Трек  2  нет в базе данных
Трек  3  нет в базе данных
Трек  4  нет в базе данных
Трек  5  нет в базе данных
Трек  6  нет в базе данных
Трек  7  нет в базе данных
Трек  8  нет в базе данных
Трек  9  нет в базе данных
Трек 10  нет в базе данных
Трек 11  нет в базе данных
Трек 12  нет в базе данных
Трек 13  нет в базе данных
Трек 14  нет в базе данных
Трек 15  нет в базе данных
Трек 16  нет в базе данных
Трек 17  нет в базе данных
Трек 18  нет в базе данных
Трек 19  нет в базе данных
Трек 20  нет в базе данных
Ни одного трека нет в базе AccurateRip
Конец отчёта

Отчёт auCDtect Task manager&#58;

-----------------------
DON'T MODIFY THIS FILE
-----------------------
PERFORMER: auCDtect Task Manager, ver. 1.5.1RC6 build 1.5.1.7
Copyright (c) 2008-2010 y-soft. All rights reserved
http://y-soft.org
ANALYZER: auCDtect: CD records authenticity detector, version 0.8.2
Copyright (c) 2004 Oleg Berngardt. All rights reserved.
Copyright (c) 2004 Alexander Djourik. All rights reserved.
FILE: Геннадий Норд - Очередная ходка.flac
  Size: 652044513 Hash: B7B5A08DA42714268D21682394F1D303 Accuracy: -m0
  Conclusion: MPEG 95%
  Signature: 16EF549FF46D9A7C7E8E61F28168EF32FA40F732
-
Яндекс.Метрика
Рейтинг@Mail.ru