Игорь Лазарев - Не тужи! (2012) [FLAC|Lossless]<Шансон>

 

Создавать темы 16-Дек-2014 20:20

-Игорь Лазарев - Не тужи! (2012)- Год: 2012
Страна-производитель диска: Россия
Издатель (лейбл): Ночное такси
Жанр: Шансон
Продолжительность: 00:52:24
Кодек: FLAC
Битрейт: Lossless
Тип рипа: image+.cue
Треклист:
01. Вступление - Александр Фрумин [00:16]
02. Воскресение (дуэт с Оксаной Четиной) [05:00]
03. Дорожная [02:27]
04. Горит костер (дуэт с Оксаной Четиной) [03:06]
05. Как жаль [04:19]
06. Лодочка [02:46]
07. Марусь [04:20]
08. Не тужи [04:14]
09. Не ровня [03:47]
10. Плач Славянки [02:54]
11. Под венец [04:40]
12. Разговор с Ангелом [03:07]
13. Тайга [05:16]
14. У камина [03:02]
15. Командировка [03:09]

Отчёт ЕАС&#58;

Exact Audio Copy V1.0 beta 3 from 29. August 2011
Отчёт EAC об извлечении, выполненном 6. апреля 2014, 14:11
Игорь Лазарев / Не тужи!
Дисковод: _NEC    DVD_RW ND-4570A   Adapter: 0  ID: 2
Режим чтения                 : Достоверность
Использование точного потока : Да
Отключение кэша аудио        : Да
Использование указателей C2  : Нет
Коррекция смещения при чтении                     : 48
Способность читать области Lead-in и Lead-out     : Нет
Заполнение пропущенных сэмплов тишиной            : Да
Удаление блоков с тишиной в начале и конце        : Нет
При вычислениях CRC использовались нулевые сэмплы : Да
Интерфейс                                         : Установленный внешний ASPI-интерфейс
Выходной формат : Внутренние WAV-операции
Формат сэмплов  : 44.100 Гц; 16 бит; стерео
TOC извлечённого CD
     Трек |   Старт  | Длительность | Начальный сектор | Конечный сектор
    ---------------------------------------------------------------------
       1  |  0:00.00 |    0:16.28   |           0      |       1227
       2  |  0:16.28 |    4:59.64   |        1228      |      23716
       3  |  5:16.17 |    2:27.30   |       23717      |      34771
       4  |  7:43.47 |    3:06.04   |       34772      |      48725
       5  | 10:49.51 |    4:18.37   |       48726      |      68112
       6  | 15:08.13 |    2:46.39   |       68113      |      80601
       7  | 17:54.52 |    4:20.09   |       80602      |     100110
       8  | 22:14.61 |    4:14.06   |      100111      |     119166
       9  | 26:28.67 |    3:46.71   |      119167      |     136187
      10  | 30:15.63 |    2:53.32   |      136188      |     149194
      11  | 33:09.20 |    4:40.39   |      149195      |     170233
      12  | 37:49.59 |    3:06.58   |      170234      |     184241
      13  | 40:56.42 |    5:15.68   |      184242      |     207934
      14  | 46:12.35 |    3:02.23   |      207935      |     221607
      15  | 49:14.58 |    3:08.73   |      221608      |     235780
Характеристики диапазона извлечения и сообщения об ошибках
Выбранный диапазон
     Имя файла \Игорь Лазарев - Не тужи! - 2012\Игорь Лазарев - Не тужи!.wav
     Пиковый уровень 100.0 %
     Скорость извлечения 5.0 X
     Качество диапазона 100.0 %
     CRC теста C3AD59DE
     CRC копии C3AD59DE
     Копирование... OK
Ошибок не произошло
AccurateRip: сводка
Трек  1  отсутствует в базе данных
Трек  2  отсутствует в базе данных
Трек  3  отсутствует в базе данных
Трек  4  отсутствует в базе данных
Трек  5  отсутствует в базе данных
Трек  6  отсутствует в базе данных
Трек  7  отсутствует в базе данных
Трек  8  отсутствует в базе данных
Трек  9  отсутствует в базе данных
Трек 10  отсутствует в базе данных
Трек 11  отсутствует в базе данных
Трек 12  отсутствует в базе данных
Трек 13  отсутствует в базе данных
Трек 14  отсутствует в базе данных
Трек 15  отсутствует в базе данных
Ни одного трека нет в базе AccurateRip
Конец отчёта

Отчёт auCDtect Task manager&#58;

-----------------------
DON'T MODIFY THIS FILE
-----------------------
PERFORMER: auCDtect Task Manager, ver. 1.5.1RC6 build 1.5.1.7
Copyright (c) 2008-2010 y-soft. All rights reserved
http://y-soft.org
ANALYZER: auCDtect: CD records authenticity detector, version 0.8.2
Copyright (c) 2004 Oleg Berngardt. All rights reserved.
Copyright (c) 2004 Alexander Djourik. All rights reserved.
FILE: Игорь Лазарев - Не тужи!.flac
  Size: 289899044 Hash: 2B828EA71564645470FE3E69EFC63F06 Accuracy: -m0
  Conclusion: CDDA 100%
  Signature: AA6189F30C37686246BAECE1662B4130B7E8494B
-
Яндекс.Метрика
Рейтинг@Mail.ru