Аркадий Северный и ансамбль «Четыре брата и лопата» - Концерт памяти Кости-аккордеониста (2013) [FLAC|Lossless]<Шансон>

 

Создавать темы 16-Дек-2014 20:20

-Аркадий Северный и ансамбль «Четыре брата и лопата» -
Концерт памяти Кости-аккордеониста (2013)
- Год: 2013
Жанр: Шансон
Продолжительность: 01:31:01
Лейбл: Ночное Такси
Кодек: FLAC (image+.cue + log)
Битрейт: Lossless-

Треклист&#58;

Трек лист:
01. Про Одессу-маму (7:48)
02. В доме Шмеерзона (4:14)
03. Представление ансамбля (1:25)
04. Мой милый Хайм (5:48)
05. Гоп-со-смыком (4:18)
06. Луной озарились хрустальные воды (6:52)
07. Всюду деньги (4:13)
08. Пиковая дама (5:26)
09. Алеша-ша... (5:21)
Продолжительность – 00:45:23

Отчёт ЕАС&#58;

Exact Audio Copy V1.0 beta 3 from 29. August 2011
Отчёт EAC об извлечении, выполненном 14. апреля 2013, 15:13
Аркадий Северный и ансамбль «Четыре брата и лопата / Концерт памяти Кости-аккордеониста
Дисковод: TEAC    BD-W512S-A   Adapter: 0  ID: 3
Режим чтения                 : Достоверность
Использование точного потока : Да
Отключение кэша аудио        : Да
Использование указателей C2  : Нет
Коррекция смещения при чтении                     : 667
Способность читать области Lead-in и Lead-out     : Нет
Заполнение пропущенных сэмплов тишиной            : Да
Удаление блоков с тишиной в начале и конце        : Нет
При вычислениях CRC использовались нулевые сэмплы : Да
Интерфейс                                         : Встроенный Win32-интерфейс для Win NT/2000
Выходной формат          : Пользовательский кодировщик
Выбранный битрейт        : 1024 kBit/s
Качество                 : Высокий
Добавление ID3-тега      : Да
Утилита сжатия           : C:\Program Files (x86)\Exact Audio Copy\Flac\flac.exe
Дополнительные параметры : -V -8 -T "Date=%year%" -T "Genre=%genre%" %source%
TOC извлечённого CD
     Трек |   Старт  | Длительность | Начальный сектор | Конечный сектор
    ---------------------------------------------------------------------
       1  |  0:00.00 |    7:47.52   |           0      |      35076
       2  |  7:47.52 |    4:13.74   |       35077      |      54125
       3  | 12:01.51 |    1:24.40   |       54126      |      60465
       4  | 13:26.16 |    5:47.41   |       60466      |      86531
       5  | 19:13.57 |    4:17.56   |       86532      |     105862
       6  | 23:31.38 |    6:52.04   |      105863      |     136766
       7  | 30:23.42 |    4:12.55   |      136767      |     155721
       8  | 34:36.22 |    5:25.65   |      155722      |     180161
       9  | 40:02.12 |    5:20.42   |      180162      |     204203
Характеристики диапазона извлечения и сообщения об ошибках
Выбранный диапазон
     Имя файла D:\Аркадий Северный и ансамбль Четыре брата и лопата -  Концерт памяти Кости-аккордеониста\CD1\Аркадий Северный и ансамбль «Четыре брата и лопата - Концерт памяти Кости-аккордеониста(CD1).wav
     Пиковый уровень 99.4 %
     Скорость извлечения 7.2 X
     Качество диапазона 100.0 %
     CRC теста EA6681BE
     CRC копии EA6681BE
     Копирование... OK
Ошибок не произошло
AccurateRip: сводка
Трек  1  отсутствует в базе данных
Трек  2  отсутствует в базе данных
Трек  3  отсутствует в базе данных
Трек  4  отсутствует в базе данных
Трек  5  отсутствует в базе данных
Трек  6  отсутствует в базе данных
Трек  7  отсутствует в базе данных
Трек  8  отсутствует в базе данных
Трек  9  отсутствует в базе данных
Ни одного трека нет в базе AccurateRip
Конец отчёта
==== Контрольная сумма отчёта 4C66CB9A09105EFE4CD02541FC4604DD66F89271A5B2117215937E1C9B2378D0 ====

Отчёт auCDtect&#58;

-----------------------
DON'T MODIFY THIS FILE
-----------------------
PERFORMER: auCDtect Task Manager, ver. 1.5.1RC6 build 1.5.1.7
Copyright (c) 2008-2010 y-soft. All rights reserved
http://y-soft.org
ANALYZER: auCDtect: CD records authenticity detector, version 0.8.2
Copyright (c) 2004 Oleg Berngardt. All rights reserved.
Copyright (c) 2004 Alexander Djourik. All rights reserved.
FILE: Аркадий Северный и ансамбль «Четыре брата и лопата - Концерт памяти Кости-аккордеониста(CD1).flac
  Size: 316661692 Hash: 4C59904D820400EA168F2DF5C4BCBFC5 Accuracy: -m8
  Conclusion: CDDA 100%
  Signature: 4925D62A20F56139190A5B12F9C7AE0B7913135F
Трек лист:
01. Шарабан (6:25)
02. С одесского кичмана (Посвящение Л.О. Утесову) (3:58)
03. Песня из к/ф «Оптимистическая трагедия» (4:04)
04. Моя красавица (5:32)
05. Школа танцев (5:12)
06. Жили-были два громилы (5:07)
07. Я решил жениться (7:39)
08. На Арсенальной улице (5:16)
09. Жора, подержи мой макинтош (2:28)
Продолжительность – 00:45:41

Отчёт ЕАС&#58;

Exact Audio Copy V1.0 beta 3 from 29. August 2011
Отчёт EAC об извлечении, выполненном 14. апреля 2013, 15:29
Аркадий Северный и ансамбль «Четыре брата и лопата» / Концерт памяти Кости-аккордеониста
Дисковод: TEAC    BD-W512S-A   Adapter: 0  ID: 3
Режим чтения                 : Достоверность
Использование точного потока : Да
Отключение кэша аудио        : Да
Использование указателей C2  : Нет
Коррекция смещения при чтении                     : 667
Способность читать области Lead-in и Lead-out     : Нет
Заполнение пропущенных сэмплов тишиной            : Да
Удаление блоков с тишиной в начале и конце        : Нет
При вычислениях CRC использовались нулевые сэмплы : Да
Интерфейс                                         : Встроенный Win32-интерфейс для Win NT/2000
Выходной формат          : Пользовательский кодировщик
Выбранный битрейт        : 1024 kBit/s
Качество                 : Высокий
Добавление ID3-тега      : Да
Утилита сжатия           : C:\Program Files (x86)\Exact Audio Copy\Flac\flac.exe
Дополнительные параметры : -V -8 -T "Date=%year%" -T "Genre=%genre%" %source%
TOC извлечённого CD
     Трек |   Старт  | Длительность | Начальный сектор | Конечный сектор
    ---------------------------------------------------------------------
       1  |  0:00.00 |    6:25.30   |           0      |      28904
       2  |  6:25.30 |    3:57.51   |       28905      |      46730
       3  | 10:23.06 |    4:04.13   |       46731      |      65043
       4  | 14:27.19 |    5:31.41   |       65044      |      89909
       5  | 19:58.60 |    5:12.13   |       89910      |     113322
       6  | 25:10.73 |    5:07.35   |      113323      |     136382
       7  | 30:18.33 |    7:39.14   |      136383      |     170821
       8  | 37:57.47 |    5:15.66   |      170822      |     194512
       9  | 43:13.38 |    2:27.46   |      194513      |     205583
Характеристики диапазона извлечения и сообщения об ошибках
Выбранный диапазон
     Имя файла D:\Аркадий Северный и ансамбль Четыре брата и лопата -  Концерт памяти Кости-аккордеониста\CD2\Аркадий Северный и ансамбль «Четыре брата и лопата» - Концерт памяти Кости-аккордеониста(CD2).wav
     Пиковый уровень 99.4 %
     Скорость извлечения 7.2 X
     Качество диапазона 100.0 %
     CRC теста 6554A57E
     CRC копии 6554A57E
     Копирование... OK
Ошибок не произошло
AccurateRip: сводка
Трек  1  отсутствует в базе данных
Трек  2  отсутствует в базе данных
Трек  3  отсутствует в базе данных
Трек  4  отсутствует в базе данных
Трек  5  отсутствует в базе данных
Трек  6  отсутствует в базе данных
Трек  7  отсутствует в базе данных
Трек  8  отсутствует в базе данных
Трек  9  отсутствует в базе данных
Ни одного трека нет в базе AccurateRip
Конец отчёта
==== Контрольная сумма отчёта 2A635EB4D915A3B99D62C3C9ECD7A71062CDF0D5BD627B8F7135883EAD45789B ====

Отчёт auCDtect&#58;

-----------------------
DON'T MODIFY THIS FILE
-----------------------
PERFORMER: auCDtect Task Manager, ver. 1.5.1RC6 build 1.5.1.7
Copyright (c) 2008-2010 y-soft. All rights reserved
http://y-soft.org
ANALYZER: auCDtect: CD records authenticity detector, version 0.8.2
Copyright (c) 2004 Oleg Berngardt. All rights reserved.
Copyright (c) 2004 Alexander Djourik. All rights reserved.
FILE: Аркадий Северный и ансамбль «Четыре брата и лопата» - Концерт памяти Кости-аккордеониста(CD2).flac
  Size: 315078200 Hash: 5B4149D5FB7CE553886104F1115F82F1 Accuracy: -m8
  Conclusion: CDDA 100%
  Signature: 860F43C0EF74F0F7A63A6D69F12E51E53483508A
-
Яндекс.Метрика
Рейтинг@Mail.ru