[ Сегодня на трекере фрилич! Идет свободное скачивание без начисления Download ]

Виктор Королёв - SMS (2013) [FLAC|Lossless]<Shanson>

 

Создавать темы 16-Дек-2014 20:20

-Виктор Королёв - SMS (2013)- Год: 2013
Жанр: Shanson
Страна-производитель диска: Россия
Издатель (лейбл): ООО "Маркон"
Номер по каталогу: UMGCD13-199
Продолжительность: 01:00:38-Кодек: FLAC
Битрейт: Lossless
Тип рипа: image+.cue
Источник (релизер): Belyi
Наличие сканов в содержимом раздачи: да-Треклист:
01. Я тону в твоих глазах (03:57)
02. На столе горела свеча (04:09)
03. SMS (04:10)
04. Я брошу жизнь свою к твоим ногам (04:37)
05. Хрустальный замок (05:07)
06. Васильковое платье (03:39)
07. А я не знал... (03:48)
08. Три часа (03:33)
09. Было или нет (04:23)
10. Ты меня достала (дуэт с Яной Павловой) (04:26)
11. Ди! Да! Ду! (03:31)
12. За окном сирень (04:01)
13. Слезы (03:54)
14. Горячий поцелуй (03:38)
15. Душа (03:37)

Отчёт ЕАС&#58;

Exact Audio Copy V1.0 beta 3 from 29. August 2011
Отчёт EAC об извлечении, выполненном 17. сентября 2013, 20:33
Виктор Королёв / SMS
Дисковод: Optiarc DVD RW AD-5280S   Adapter: 2  ID: 1
Режим чтения                 : Достоверность
Использование точного потока : Да
Отключение кэша аудио        : Да
Использование указателей C2  : Нет
Коррекция смещения при чтении                     : 48
Способность читать области Lead-in и Lead-out     : Нет
Заполнение пропущенных сэмплов тишиной            : Да
Удаление блоков с тишиной в начале и конце        : Нет
При вычислениях CRC использовались нулевые сэмплы : Да
Интерфейс                                         : Встроенный Win32-интерфейс для Win NT/2000
Выходной формат          : Пользовательский кодировщик
Выбранный битрейт        : 896 kBit/s
Качество                 : Высокий
Добавление ID3-тега      : Нет
Утилита сжатия           : C:\Program Files\EACPortable\App\EAC\FLAC\flac.exe
Дополнительные параметры : -6 -V -T "ARTIST=%artist%" -T "TITLE=%title%" -T "ALBUM=%albumtitle%" -T "DATE=%year%" -T "TRACKNUMBER=%tracknr%" -T "GENRE=%genre%" -T "COMMENT=%comment%" %hascover%--picture="%coverfile%"%hascover% %source% -o %dest%
TOC извлечённого CD
     Трек |   Старт  | Длительность | Начальный сектор | Конечный сектор
    ---------------------------------------------------------------------
       1  |  0:00.00 |    3:57.41   |           0      |      17815
       2  |  3:57.41 |    4:09.74   |       17816      |      36564
       3  |  8:07.40 |    4:10.03   |       36565      |      55317
       4  | 12:17.43 |    4:37.02   |       55318      |      76094
       5  | 16:54.45 |    5:07.65   |       76095      |      99184
       6  | 22:02.35 |    3:39.45   |       99185      |     115654
       7  | 25:42.05 |    3:48.37   |      115655      |     132791
       8  | 29:30.42 |    3:33.62   |      132792      |     148828
       9  | 33:04.29 |    4:23.74   |      148829      |     168627
      10  | 37:28.28 |    4:26.74   |      168628      |     188651
      11  | 41:55.27 |    3:31.26   |      188652      |     204502
      12  | 45:26.53 |    4:01.60   |      204503      |     222637
      13  | 49:28.38 |    3:54.08   |      222638      |     240195
      14  | 53:22.46 |    3:38.05   |      240196      |     256550
      15  | 57:00.51 |    3:37.70   |      256551      |     272895
Характеристики диапазона извлечения и сообщения об ошибках
Выбранный диапазон
     Имя файла G:\Дискографии (Lossless)\Виктор Королёв - SMS.wav
     Пиковый уровень 100.0 %
     Скорость извлечения 4.2 X
     Качество диапазона 100.0 %
     CRC теста 8C7EA98D
     CRC копии 8C7EA98D
     Копирование... OK
Ошибок не произошло
Конец отчёта

Отчёт auCDtect Task manager&#58;

-----------------------
DON'T MODIFY THIS FILE
-----------------------
PERFORMER: auCDtect Task Manager, ver. 1.6.0 RC1 build 1.6.0.1
Copyright (c) 2008-2010 y-soft. All rights reserved
http://y-soft.org
ANALYZER: auCDtect: CD records authenticity detector, version 0.8.2
Copyright (c) 2004 Oleg Berngardt. All rights reserved.
Copyright (c) 2004 Alexander Djourik. All rights reserved.
FILE: Виктор Королёв - SMS.flac
  Size: 486571282 Hash: D97227AFF2603C5EB971C1F040EA620D Accuracy: -m0
  Conclusion: CDDA 100%
  Signature: 6B18C5B63E922D1A32DF5A9BB1A24FA64EC60F10
-
Яндекс.Метрика
Рейтинг@Mail.ru