Михаил Шуфутинский - Мама (2013) [FLAC|Lossless]<Шансон>

 

Создавать темы 16-Дек-2014 20:20

-Михаил Шуфутинский - Мама (2013)- Год: 2013
Жанр: Шансон
Лейбл: Art Optimum
Продолжительность: 01:18:42
Кодек: FLAC
Битрейт: Lossless
Тип рипа: image+.cue-Треклист:
01. Мама (4:05)
02. Кручина (4:07)
03. Не печальтесь обо мне (3:32)
04. Love story (3:10)
05. Как-же быть с любовью (3:26)
06. Дядя Паша (4:06)
07. Не ешь с ножа (3:36)
08. Всё прошло(дуэт с Екатериной Голицыной) (3:28)
09. От пункта Я до пункта Ты (3:09)
10. Левый берег Дона (3:56)
11. Москва-Владивосток (3:06)
12. Островок (3:08)
13. Любовь жива(дуэт с Варварой Комиссаровой) (3:45)
14. Маша (3:16)
15. Славянская душа (3:32)
16. Улетайте вороны (3:38)
17. Соло (3:58)
18. Маня (3:18)
19. Ветер Северный (4:08)
20. По Дону (3:19)
21. Брато (3:16)
22. Тик-так(дуэт с Катей Лель) (3:44)

Отчёт ЕАС&#58;

Exact Audio Copy V1.0 beta 3 from 29. August 2011
Отчёт EAC об извлечении, выполненном 20. июня 2013, 21:52
Михаил Шуфутинский / Мама
Дисковод: PIONEER BD-RW   BDR-207   Adapter: 3  ID: 0
Режим чтения                 : Достоверность
Использование точного потока : Да
Отключение кэша аудио        : Да
Использование указателей C2  : Нет
Коррекция смещения при чтении                     : 667
Способность читать области Lead-in и Lead-out     : Нет
Заполнение пропущенных сэмплов тишиной            : Да
Удаление блоков с тишиной в начале и конце        : Нет
При вычислениях CRC использовались нулевые сэмплы : Да
Интерфейс                                         : Установленный внешний ASPI-интерфейс
Выходной формат          : Пользовательский кодировщик
Выбранный битрейт        : 896 kBit/s
Качество                 : Высокий
Добавление ID3-тега      : Нет
Утилита сжатия           : C:\Program Files (x86)\Exact Audio Copy\Flac\flac.exe
Дополнительные параметры : -V -8 -T "Date=%year%" -T "Genre=%genre%" %source%
TOC извлечённого CD
     Трек |   Старт  | Длительность | Начальный сектор | Конечный сектор
    ---------------------------------------------------------------------
       1  |  0:00.00 |    4:05.26   |           0      |      18400
       2  |  4:05.26 |    4:07.09   |       18401      |      36934
       3  |  8:12.35 |    3:31.49   |       36935      |      52808
       4  | 11:44.09 |    3:09.55   |       52809      |      67038
       5  | 14:53.64 |    3:25.63   |       67039      |      82476
       6  | 18:19.52 |    4:06.20   |       82477      |     100946
       7  | 22:25.72 |    3:35.41   |      100947      |     117112
       8  | 26:01.38 |    3:27.47   |      117113      |     132684
       9  | 29:29.10 |    3:09.08   |      132685      |     146867
      10  | 32:38.18 |    3:55.51   |      146868      |     164543
      11  | 36:33.69 |    3:05.60   |      164544      |     178478
      12  | 39:39.54 |    3:08.32   |      178479      |     192610
      13  | 42:48.11 |    3:45.27   |      192611      |     209512
      14  | 46:33.38 |    3:15.50   |      209513      |     224187
      15  | 49:49.13 |    3:31.69   |      224188      |     240081
      16  | 53:21.07 |    3:37.46   |      240082      |     256402
      17  | 56:58.53 |    3:58.15   |      256403      |     274267
      18  | 60:56.68 |    3:18.03   |      274268      |     289120
      19  | 64:14.71 |    4:08.11   |      289121      |     307731
      20  | 68:23.07 |    3:19.29   |      307732      |     322685
      21  | 71:42.36 |    3:16.06   |      322686      |     337391
      22  | 74:58.42 |    3:43.41   |      337392      |     354157
Характеристики диапазона извлечения и сообщения об ошибках
Выбранный диапазон
     Имя файла G:\lossless\Шуфутинский Михаил\2013 - Михаил Шуфутинский - Мама\Михаил Шуфутинский - Мама.wav
     Пиковый уровень 100.0 %
     Скорость извлечения 2.1 X
     Качество диапазона 100.0 %
     CRC теста 29B941AC
     CRC копии 29B941AC
     Копирование... OK
Ошибок не произошло
AccurateRip: сводка
Трек  1  отсутствует в базе данных
Трек  2  отсутствует в базе данных
Трек  3  отсутствует в базе данных
Трек  4  отсутствует в базе данных
Трек  5  отсутствует в базе данных
Трек  6  отсутствует в базе данных
Трек  7  отсутствует в базе данных
Трек  8  отсутствует в базе данных
Трек  9  отсутствует в базе данных
Трек 10  отсутствует в базе данных
Трек 11  отсутствует в базе данных
Трек 12  отсутствует в базе данных
Трек 13  отсутствует в базе данных
Трек 14  отсутствует в базе данных
Трек 15  отсутствует в базе данных
Трек 16  отсутствует в базе данных
Трек 17  отсутствует в базе данных
Трек 18  отсутствует в базе данных
Трек 19  отсутствует в базе данных
Трек 20  отсутствует в базе данных
Трек 21  отсутствует в базе данных
Трек 22  отсутствует в базе данных
Ни одного трека нет в базе AccurateRip
Конец отчёта
==== Контрольная сумма отчёта 46715F2AFC68FFC890FFCAD7E581AF55A67661FC0117541615DCF95DE8ADB35F ====

Отчёт auCDtect Task manager&#58;

-----------------------
DON'T MODIFY THIS FILE
-----------------------
PERFORMER: auCDtect Task Manager, ver. 1.6.0 RC1 build 1.6.0.1
Copyright (c) 2008-2010 y-soft. All rights reserved
http://y-soft.org
ANALYZER: auCDtect: CD records authenticity detector, version 0.8.2
Copyright (c) 2004 Oleg Berngardt. All rights reserved.
Copyright (c) 2004 Alexander Djourik. All rights reserved.
FILE: Михаил Шуфутинский - Мама.flac
  Size: 591280503 Hash: A2408B86963C71D0E1C39D52869C3DC4 Accuracy: -m0
  Conclusion: MPEG 95%
  Signature: 67E2A098439C116D0348FDC9F7E51D55F999B9FC
-
Яндекс.Метрика
Рейтинг@Mail.ru