[ Сегодня на трекере фрилич! Идет свободное скачивание без начисления Download ]

Борис Рубашкин - Любо братцы, любо ... (1995) [FLAC|Lossless]<Folk>

 

Создавать темы 16-Дек-2014 20:20

-Борис Рубашкин - Любо братцы, любо ... (1995)- Год: 1995
Жанр: Folk
Продолжительность: 00:47:42
Издатель (лейбл): RDM
Номер по каталогу: 508092
Страна: Австрия
Тип рипа: image+.cue
Кодек: FLAC
Битрейт: Lossless
Треклист:
1. Любо, братцы, любо...
2. Чайка
3. Ты меня не любишь
4. Не губите молодость
5. Песня старого гусара
6. Я ехал к Вам
7. Песня атамана
8. В дымке-невидимке
9. Ах, давно ли, давно
10. На холмах Грузии
11. Поцелуй
12. Свечи нагорели
13. Веселый кабачок
14. Мурка
15. 17 лет...
16. Чижик - пыжик
17. Цыпленок жареный
18. Песня Дуни их Одессы

Отчёт ЕАС&#58;

Exact Audio Copy V0.99 prebeta 5 from 4. May 2009
EAC extraction logfile from 18. December 2010, 0:09
Борис Рубашкин / Любо, братцы, любо...
Used drive  : TSSTcorpCDDVDW TS-L632H   Adapter: 0  ID: 0
Read mode               : Secure
Utilize accurate stream : Yes
Defeat audio cache      : Yes
Make use of C2 pointers : No
Read offset correction                      : 6
Overread into Lead-In and Lead-Out          : No
Fill up missing offset samples with silence : Yes
Delete leading and trailing silent blocks   : No
Null samples used in CRC calculations       : Yes
Used interface                              : Native Win32 interface for Win NT & 2000
Used output format              : User Defined Encoder
Selected bitrate                : 128 kBit/s
Quality                         : High
Add ID3 tag                     : No
Command line compressor         : D:\Program Files\Exact Audio Copy\Flac\flac.exe
Additional command line options : -8 -V -T "ARTIST=%a" -T "TITLE=%t" -T "ALBUM=%g" -T "DATE=%y" -T "TRACKNUMBER=%n" -T "GENRE=%m" -T "COMMENT=EAC FLAC -8" %s
TOC of the extracted CD
     Track |   Start  |  Length  | Start sector | End sector
    ---------------------------------------------------------
        1  |  0:00.25 |  3:02.00 |        25    |    13674
        2  |  3:02.25 |  2:32.25 |     13675    |    25099
        3  |  5:34.50 |  3:09.50 |     25100    |    39324
        4  |  8:44.25 |  2:44.62 |     39325    |    51686
        5  | 11:29.12 |  3:34.13 |     51687    |    67749
        6  | 15:03.25 |  2:27.00 |     67750    |    78774
        7  | 17:30.25 |  4:11.00 |     78775    |    97599
        8  | 21:41.25 |  1:30.00 |     97600    |   104349
        9  | 23:11.25 |  3:03.50 |    104350    |   118124
       10  | 26:15.00 |  2:26.50 |    118125    |   129124
       11  | 28:41.50 |  2:09.50 |    129125    |   138849
       12  | 30:51.25 |  3:04.25 |    138850    |   152674
       13  | 33:55.50 |  2:42.25 |    152675    |   164849
       14  | 36:38.00 |  2:15.00 |    164850    |   174974
       15  | 38:53.00 |  2:05.62 |    174975    |   184411
       16  | 40:58.62 |  3:14.00 |    184412    |   198961
       17  | 44:12.62 |  3:28.63 |    198962    |   214624
       18  | 47:41.50 |  2:02.25 |    214625    |   223799
Range status and errors
Selected range
     Filename D:\Downloads\Music\Борис Рубашкин - Любо, братцы, любо\Борис Рубашкин - Любо, братцы, любо....wav
     Peak level 93.4 %
     Range quality 100.0 %
     Test CRC 7C54882F
     Copy CRC 7C54882F
     Copy OK
No errors occurred
AccurateRip summary
Track  1  not present in database
Track  2  not present in database
Track  3  not present in database
Track  4  not present in database
Track  5  not present in database
Track  6  not present in database
Track  7  not present in database
Track  8  not present in database
Track  9  not present in database
Track 10  not present in database
Track 11  not present in database
Track 12  not present in database
Track 13  not present in database
Track 14  not present in database
Track 15  not present in database
Track 16  not present in database
Track 17  not present in database
Track 18  not present in database
None of the tracks are present in the AccurateRip database
End of status report

Отчёт auCDtect Task manager&#58;

-----------------------
DON'T MODIFY THIS FILE
-----------------------
PERFORMER: auCDtect Task Manager, ver. 1.6.0 RC1 build 1.6.0.1
Copyright (c) 2008-2010 y-soft. All rights reserved
http://y-soft.org
ANALYZER: auCDtect: CD records authenticity detector, version 0.8.2
Copyright (c) 2004 Oleg Berngardt. All rights reserved.
Copyright (c) 2004 Alexander Djourik. All rights reserved.
FILE: Борис Рубашкин - Любо, братцы, любо....flac
  Size: 234187431 Hash: B857496D010169FD71BAD6B6F83AB477 Accuracy: -m0
  Conclusion: CDDA 100%
  Signature: 09E3BE561FA230EE05AEAC3A98C516903AB8A719
-
Яндекс.Метрика
Рейтинг@Mail.ru