Forrest Fang - Animism (2012) [FLAC|Lossless]<Ambient, Tribal>

 

Создавать темы 15-Дек-2014 23:05

-Forrest Fang Animism- Год: 2012
Лейбл: Projekt
Каталог: PRO274
Жанр: Ambient, Tribal
Продолжительность: 01:00:25
Кодек: FLAC
Битрейт: Lossless
Тип рипа: tracks+.cue
Треклист:
01. Tailing Wind (06:50)
02. The Chameleon's Paintbox (06:21)
03. Islands In The Sky (08:58)
04. Evening Chorus (05:24)
05. Passing Suns (07:41)
06. A Tributary Unwinds (08:17)
07. Sleeping Snakes (07:14)
08. Resting Point (09:40)

Отчёт XLD&#58;

X Lossless Decoder version 20140504 (147.0)
XLD extraction logfile from 2014-09-27 16:09:41 -0400
Forrest Fang / Animism
Used drive : HL-DT-ST DVDRAM GE24NU30 (revision NT00)
Media type : Pressed CD
Ripper mode             : XLD Secure Ripper
Disable audio cache     : OK for the drive with a cache less than 1375KiB
Make use of C2 pointers : NO
Read offset correction  : 667
Max retry count         : 100
Gap status              : Analyzed, Appended (except HTOA)
TOC of the extracted CD
     Track |   Start  |  Length  | Start sector | End sector
    ---------------------------------------------------------
        1  | 00:00:00 | 06:49:40 |         0    |    30714
        2  | 06:49:40 | 06:21:30 |     30715    |    59319
        3  | 13:10:70 | 08:57:61 |     59320    |    99655
        4  | 22:08:56 | 05:23:39 |     99656    |   123919
        5  | 27:32:20 | 07:41:35 |    123920    |   158529
        6  | 35:13:55 | 08:16:67 |    158530    |   195796
        7  | 43:30:47 | 07:13:54 |    195797    |   228325
        8  | 50:44:26 | 09:40:02 |    228326    |   271827
AccurateRip Summary (DiscID: 0011d2dc-0077d192-520e2808)
    Track 01 : OK (v2, confidence 1/1)
    Track 02 : OK (v2, confidence 1/1)
    Track 03 : OK (v2, confidence 1/1)
    Track 04 : OK (v2, confidence 1/1)
    Track 05 : OK (v2, confidence 1/1)
    Track 06 : OK (v2, confidence 1/1)
    Track 07 : OK (v2, confidence 1/1)
    Track 08 : NG (total 1 submission)
        ->7 tracks accurately ripped, 1 track not
All Tracks
    Album gain               : -2.85 dB
    Peak                     : 0.963501
    Statistics
        Read error                           : 0
        Jitter error (maybe fixed)           : 0
        Retry sector count                   : 0
        Damaged sector count                 : 0
Track 01
    Filename : /Volumes/Vomitself/Music/Forrest Fang/Animism/01 Tailing Wind.flac
    Pre-gap length : 00:02:00
    Track gain               : -2.72 dB
    Peak                     : 0.963043
    CRC32 hash (test run)    : AB0D0EEE
    CRC32 hash               : AB0D0EEE
    CRC32 hash (skip zero)   : B58BF21B
    AccurateRip v1 signature : A599ECE6
    AccurateRip v2 signature : AF0D0F66
        ->Accurately ripped (v2, confidence 1/1)
    Statistics
        Read error                           : 0
        Jitter error (maybe fixed)           : 0
        Retry sector count                   : 0
        Damaged sector count                 : 0
Track 02
    Filename : /Volumes/Vomitself/Music/Forrest Fang/Animism/02 The Chameleon's Paintbox.flac
    Track gain               : -3.91 dB
    Peak                     : 0.962402
    CRC32 hash (test run)    : CDACE74D
    CRC32 hash               : CDACE74D
    CRC32 hash (skip zero)   : 9797185C
    AccurateRip v1 signature : 2A88FE6C
    AccurateRip v2 signature : 83A961A4
        ->Accurately ripped (v2, confidence 1/1)
    Statistics
        Read error                           : 0
        Jitter error (maybe fixed)           : 0
        Retry sector count                   : 0
        Damaged sector count                 : 0
Track 03
    Filename : /Volumes/Vomitself/Music/Forrest Fang/Animism/03 Islands in the Sky.flac
    Pre-gap length : 00:01:29
    Track gain               : -2.56 dB
    Peak                     : 0.963501
    CRC32 hash (test run)    : 3B9FA860
    CRC32 hash               : 3B9FA860
    CRC32 hash (skip zero)   : 18C1BFD8
    AccurateRip v1 signature : 6C5ADAA6
    AccurateRip v2 signature : 0D2E4AED
        ->Accurately ripped (v2, confidence 1/1)
    Statistics
        Read error                           : 0
        Jitter error (maybe fixed)           : 0
        Retry sector count                   : 0
        Damaged sector count                 : 0
Track 04
    Filename : /Volumes/Vomitself/Music/Forrest Fang/Animism/04 Evening Chorus.flac
    Pre-gap length : 00:01:62
    Track gain               : -3.29 dB
    Peak                     : 0.902954
    CRC32 hash (test run)    : 160DDBB8
    CRC32 hash               : 160DDBB8
    CRC32 hash (skip zero)   : 91AD6B01
    AccurateRip v1 signature : F6B990E2
    AccurateRip v2 signature : 7EFE3984
        ->Accurately ripped (v2, confidence 1/1)
    Statistics
        Read error                           : 0
        Jitter error (maybe fixed)           : 0
        Retry sector count                   : 0
        Damaged sector count                 : 0
Track 05
    Filename : /Volumes/Vomitself/Music/Forrest Fang/Animism/05 Passing Suns.flac
    Pre-gap length : 00:01:42
    Track gain               : -1.78 dB
    Peak                     : 0.797119
    CRC32 hash (test run)    : A46069FC
    CRC32 hash               : A46069FC
    CRC32 hash (skip zero)   : F63D0AA2
    AccurateRip v1 signature : 6B24F506
    AccurateRip v2 signature : C4CA59A5
        ->Accurately ripped (v2, confidence 1/1)
    Statistics
        Read error                           : 0
        Jitter error (maybe fixed)           : 0
        Retry sector count                   : 0
        Damaged sector count                 : 0
Track 06
    Filename : /Volumes/Vomitself/Music/Forrest Fang/Animism/06 A Tributary Unwinds.flac
    Pre-gap length : 00:01:31
    Track gain               : -2.68 dB
    Peak                     : 0.962891
    CRC32 hash (test run)    : F53F6F39
    CRC32 hash               : F53F6F39
    CRC32 hash (skip zero)   : 05611CC7
    AccurateRip v1 signature : 4B051E4A
    AccurateRip v2 signature : C40F8B51
        ->Accurately ripped (v2, confidence 1/1)
    Statistics
        Read error                           : 0
        Jitter error (maybe fixed)           : 0
        Retry sector count                   : 0
        Damaged sector count                 : 0
Track 07
    Filename : /Volumes/Vomitself/Music/Forrest Fang/Animism/07 Sleeping Snakes.flac
    Pre-gap length : 00:00:70
    Track gain               : -1.00 dB
    Peak                     : 0.962463
    CRC32 hash (test run)    : 43B5E2FF
    CRC32 hash               : 43B5E2FF
    CRC32 hash (skip zero)   : 5F64B8FA
    AccurateRip v1 signature : CFB395F1
    AccurateRip v2 signature : 2162E04E
        ->Accurately ripped (v2, confidence 1/1)
    Statistics
        Read error                           : 0
        Jitter error (maybe fixed)           : 0
        Retry sector count                   : 0
        Damaged sector count                 : 0
Track 08
    Filename : /Volumes/Vomitself/Music/Forrest Fang/Animism/08 Resting Point.flac
    Pre-gap length : 00:00:64
    Track gain               : -3.19 dB
    Peak                     : 0.961853
    CRC32 hash (test run)    : EB92A461
    CRC32 hash               : EB92A461
    CRC32 hash (skip zero)   : 9D4BAF9B
    AccurateRip v1 signature : 121B479D
    AccurateRip v2 signature : 8187BAA9
        ->Rip may not be accurate (total 1 submission).
    Statistics
        Read error                           : 0
        Jitter error (maybe fixed)           : 0
        Retry sector count                   : 0
        Damaged sector count                 : 0
No errors occurred
End of status report
-----BEGIN XLD SIGNATURE-----
JAjDiCQwdJYG6stwCEWMzPsG4Nt9zbh0OyJ.rEjOhfXIlnIxvFsi3BPAALomO.CtJloPdwfGvxvtdZOfcdCIp4xnUTMx.8Bzey9qfTS
-----END XLD SIGNATURE-----

Отчёт auCDtect Task manager&#58;

-----------------------
DON'T MODIFY THIS FILE
-----------------------
PERFORMER: auCDtect Task Manager, ver. 1.5.1RC6 build 1.5.1.7
Copyright (c) 2008-2010 y-soft. All rights reserved
http://y-soft.org
ANALYZER: auCDtect: CD records authenticity detector, version 0.8.2
Copyright (c) 2004 Oleg Berngardt. All rights reserved.
Copyright (c) 2004 Alexander Djourik. All rights reserved.
FILE: 01 Tailing Wind.flac
  Size: 40521360 Hash: 47A35F1F1781FD26222E324D6FB217A0 Accuracy: -m0
  Conclusion: CDDA 100%
  Signature: 47939C40E0D847454E486E35EB14A59A1732286D
FILE: 08 Resting Point.flac
  Size: 46451369 Hash: 9825FD8C1659FDA52F5F8F7115F550BC Accuracy: -m0
  Conclusion: CDDA 100%
  Signature: 6E7D4DAD9174F5FDB79B7D4E2EDDB6B76D303A67
FILE: 07 Sleeping Snakes.flac
  Size: 38561154 Hash: 848D8D77C89605284CD06863DF055F35 Accuracy: -m0
  Conclusion: CDDA 58%
  Signature: 6E992B01F54E411C20A809578D81B3DAD55BD56A
FILE: 06 A Tributary Unwinds.flac
  Size: 40083661 Hash: 82E18A9D0F15B8A3B37DD5DBC92A3D59 Accuracy: -m0
  Conclusion: CDDA 100%
  Signature: D00BA0E2469908D47F5755D6EDAB5BCA667ED618
FILE: 05 Passing Suns.flac
  Size: 37975026 Hash: B7D2B7CB022C08CF6CCA5E19C9F9E5E3 Accuracy: -m0
  Conclusion: CDDA 100%
  Signature: 2B3A0DDDF30C0733B085CE725D148403E5CAC048
FILE: 04 Evening Chorus.flac
  Size: 25143698 Hash: 847879916DCCD214BD01B6630352A838 Accuracy: -m0
  Conclusion: CDDA 100%
  Signature: 24F109A193457D4141FD9C594017480F4CF7646C
FILE: 03 Islands in the Sky.flac
  Size: 51493960 Hash: 8C648234393102A1C2CCFCF46DEFBE30 Accuracy: -m0
  Conclusion: CDDA 100%
  Signature: 8E925FBE8440BF201BE2AC3EE33D2B8FBE6B6E94
FILE: 02 The Chameleon's Paintbox.flac
  Size: 36213523 Hash: 08854E6D95BCA886C6C90CBA0994B0CE Accuracy: -m0
  Conclusion: CDDA 100%
  Signature: CB7AA4117DE6644806F7E52E52C14787C565F067
Яндекс.Метрика
Рейтинг@Mail.ru