Connect.Ohm - [ 9980 ] (2012) [FLAC|Lossless]<Downtempo, Ambient>

 

Создавать темы 15-Дек-2014 23:05

-Connect.Ohm - [ 9980 ] (2012)- Label: Ultimae Records
Catalog#: inre054
Format: CD, Album, Mixed
Country: France
Released: 17 Oct 2012
Жанр: Downtempo, Ambient
Продолжительность: 01:11:37
Кодек: FLAC
Битрейт: Lossless
Трек лист:
01. Evolution 1:1 (8:20)
02. Snow Park (8:46)
03. 9980 (8:05)
04. Mol (9:02)
05. Fossil (10:50)
06. Take Off (Album Edit) (6:33)
07. Gentle Perception (5:02)
08. Time To Time By Time (7:53)
09. Winter Sorrows (7:07)--All songs written & produced by
Alex Scheffer (tracks: 1 to 7, 9), Hidetoshi Koizumi (tracks: 3 to 5, 7 to 9)
Atmospheric Studio - Paris - France | Double Life Studio - Tokyo - Japan
Artwork design & audio mastering by Vincent Villuis
Ultimae Studio - Lyon - France-

Отчёт ЕАС&#58;

Exact Audio Copy V1.0 beta 3 from 29. August 2011
EAC extraction logfile from 18. November 2012, 21:19
Connect.Ohm / 9980
Used drive  : PIONEER DVD-RW  DVR-218L   Adapter: 2  ID: 0
Read mode               : Secure
Utilize accurate stream : Yes
Defeat audio cache      : Yes
Make use of C2 pointers : No
Read offset correction                      : 6
Overread into Lead-In and Lead-Out          : No
Fill up missing offset samples with silence : Yes
Delete leading and trailing silent blocks   : No
Null samples used in CRC calculations       : Yes
Used interface                              : Native Win32 interface for Win NT & 2000
Used output format              : User Defined Encoder
Selected bitrate                : 1024 kBit/s
Quality                         : High
Add ID3 tag                     : No
Command line compressor         : C:\Program Files (x86)\Exact Audio Copy\Flac\flac.exe
Additional command line options : -V -8 -T "Genre=%genre%" -T "Artist=%artist%" -T "Title=%title%" -T "Album=%albumtitle%" -T "Date=%year%" -T "Tracknumber=%tracknr%" -T "Comment=%comment%" %source%
TOC of the extracted CD
     Track |   Start  |  Length  | Start sector | End sector
    ---------------------------------------------------------
        1  |  0:00.00 |  8:20.00 |         0    |    37499
        2  |  8:20.00 |  8:45.74 |     37500    |    76948
        3  | 17:05.74 |  8:05.01 |     76949    |   113324
        4  | 25:11.00 |  9:01.74 |    113325    |   153973
        5  | 34:12.74 | 10:50.00 |    153974    |   202723
        6  | 45:02.74 |  6:32.74 |    202724    |   232197
        7  | 51:35.73 |  5:02.02 |    232198    |   254849
        8  | 56:38.00 |  7:53.01 |    254850    |   290325
        9  | 64:31.01 |  7:06.39 |    290326    |   322314
Range status and errors
Selected range
     Filename D:\neki_chel,ncl,michigun,drakwn\Connect.Ohm - 9980 (Ultimae Rec. 2012) (Flac)\Connect.Ohm - 9980 (2012).wav
     Peak level 96.2 %
     Extraction speed 2.0 X
     Range quality 100.0 %
     Test CRC 28D2BF9A
     Copy CRC 28D2BF9A
     Copy OK
No errors occurred
AccurateRip summary
Track  1  not present in database
Track  2  not present in database
Track  3  not present in database
Track  4  not present in database
Track  5  not present in database
Track  6  not present in database
Track  7  not present in database
Track  8  not present in database
Track  9  not present in database
None of the tracks are present in the AccurateRip database
End of status report
==== Log checksum 750958CD4E0ED08E68C424B361DAB2F415E7C73BE4334EC9061A1F145534CE0D ====

Отчёт auCDtect Task manager&#58;

-----------------------
DON'T MODIFY THIS FILE
-----------------------
PERFORMER: auCDtect Task Manager, ver. 1.5.1RC6 build 1.5.1.7
Copyright (c) 2008-2010 y-soft. All rights reserved
http://y-soft.org
ANALYZER: auCDtect: CD records authenticity detector, version 0.8.2
Copyright (c) 2004 Oleg Berngardt. All rights reserved.
Copyright (c) 2004 Alexander Djourik. All rights reserved.
FILE: Connect.Ohm - 9980 (2012).flac
  Size: 342377759 Hash: 6510FE5F74569504408C37D6F8DB1DAD Accuracy: -m0
  Conclusion: CDDA 100%
  Signature: C6C7CA5DB8841BD3899F5A3A24768E5DDE820A18
-
Яндекс.Метрика
Рейтинг@Mail.ru