[ Сегодня на трекере фрилич! Идет свободное скачивание без начисления Download ]

ЧиЛи - Время петь! (2010) [FLAC|Lossless]<Pop>

 

Создавать темы 14-Дек-2014 22:13

-ЧиЛи - Время петь! (2010)- Год: 2010
Жанр: Pop
Продолжительность: 00:45:33
Издатель (лейбл): VELVET Music
Номер по каталогу: МТ 000410-482-1
Страна: Россия
Тип рипа: image+.cue
Кодек: FLAC
Битрейт: Lossless
Треклист:
01. Почему?
02. Орэ-Орэ
03. Сказки feat. Гоша Куценко
04. Таити
05. В миноре
06. Обещаю
07. Одиночество
08. Можно всё!
09. Кошка
10. Алмазы
11. Орэ-Орэ (Sergei Karpov Remix)
12. Можно всё! (DJ Kirill Clash Radio Remix)
13. Сказки (DJ Matuya & T-Lovers Radio Remix)-

Дополнительная информация&#58;

Группа «ЧИ-ЛИ» представляет свой третий альбом «ВРЕМЯ ПЕТЬ!»
В состав долгожданного альбома войдут 11 песен, некоторые из которых уже стали признанными хитами, а так же три ремикса.
Группа «Чи-Ли» - это качественная поп-музыка, живой коллектив и заряд позитива в каждой песне. Именно этим ребята полюбились миллионам слушателей не только по всей России, но и за ее пределами. Их песни сразу становятся популярными, а клипы занимают первые позиции в топ-листах музыкальных каналов.
Из уже известных треков, на которые были сняты клипы, в альбом «ВРЕМЯ ПЕТЬ!» войдут:
«Сказки» - дуэт Ирины и Гоши Куценко музыкальные критики отметили как один из самых удачных совместных проектов. Песня произвела настоящий фурор на всех радиостанциях. «Сказки» так же удостоились и высокой оценки Аллы Пугачевой, которая пригласила ребят для участия в «Песне года».
«Орэ-орэ» - хит лета и самая заводная композиция альбома. В прошлом году «Орэ-орэ» признали самой востребованной и популярной песней на курортах черноморского побережья.
«Обещаю» - изначально музыканты задумывали снять клип исключительно для размещения в Интернете. Надо сказать, что уже спустя неделю композиция, которую ребята разместили на ресурсе youtube.com, завоевала тысячи зрителей. Так же ею заинтересовались и музыкальные телеканалы - Music Box, RU.TV, Муз-ТВ.
«Можно все!» - одна из последний видео-работ группы, песня несколько недель находилась в хит-параде Русского Радио «Золотой Граммофон». По версии чартов Турне и Топ-хит песня входит в десятку самых ротируемых русскоязычных треков в России.
Презентация альбома пройдет 17 ноября в клубе «Le Terrace».
Оценить третий долгожданный альбом группы придут ведущие СМИ и звездные друзья коллектива.

Отчёт ЕАС&#58;

Exact Audio Copy V0.99 prebeta 5 from 4. May 2009
EAC extraction logfile from 28. November 2010, 19:49
Чи-Ли / Время петь!
Used drive  : PIONEER DVD-RW  DVR-212   Adapter: 8  ID: 0
Read mode               : Secure
Utilize accurate stream : Yes
Defeat audio cache      : Yes
Make use of C2 pointers : No
Read offset correction                      : 48
Overread into Lead-In and Lead-Out          : No
Fill up missing offset samples with silence : Yes
Delete leading and trailing silent blocks   : No
Null samples used in CRC calculations       : Yes
Used interface                              : Installed external ASPI interface
Used output format : Internal WAV Routines
Sample format      : 44.100 Hz; 16 Bit; Stereo
TOC of the extracted CD
     Track |   Start  |  Length  | Start sector | End sector
    ---------------------------------------------------------
        1  |  0:00.00 |  3:26.58 |         0    |    15507
        2  |  3:26.58 |  3:53.14 |     15508    |    32996
        3  |  7:19.72 |  3:05.19 |     32997    |    46890
        4  | 10:25.16 |  3:26.36 |     46891    |    62376
        5  | 13:51.52 |  4:02.07 |     62377    |    80533
        6  | 17:53.59 |  4:02.74 |     80534    |    98757
        7  | 21:56.58 |  3:33.73 |     98758    |   114805
        8  | 25:30.56 |  2:31.49 |    114806    |   126179
        9  | 28:02.30 |  3:10.68 |    126180    |   140497
       10  | 31:13.23 |  3:38.53 |    140498    |   156900
       11  | 34:52.01 |  3:33.09 |    156901    |   172884
       12  | 38:25.10 |  3:28.73 |    172885    |   188557
       13  | 41:54.08 |  3:39.28 |    188558    |   205010
Range status and errors
Selected range
     Filename J:\MP3\Чи-Ли (FLAC)\Чи-Ли - Время петь! (2010) FLAC\Чи-Ли - Время петь!.wav
     Peak level 99.7 %
     Range quality 100.0 %
     Test CRC 23EE7A71
     Copy CRC 23EE7A71
     Copy OK
No errors occurred
AccurateRip summary
Track  1  not present in database
Track  2  not present in database
Track  3  not present in database
Track  4  not present in database
Track  5  not present in database
Track  6  not present in database
Track  7  not present in database
Track  8  not present in database
Track  9  not present in database
Track 10  not present in database
Track 11  not present in database
Track 12  not present in database
Track 13  not present in database
None of the tracks are present in the AccurateRip database
End of status report

Отчёт auCDtect Task manager&#58;

-----------------------
DON'T MODIFY THIS FILE
-----------------------
PERFORMER: auCDtect Task Manager, ver. 1.6.0 RC1 build 1.6.0.1
Copyright (c) 2008-2010 y-soft. All rights reserved
http://y-soft.org
ANALYZER: auCDtect: CD records authenticity detector, version 0.8.2
Copyright (c) 2004 Oleg Berngardt. All rights reserved.
Copyright (c) 2004 Alexander Djourik. All rights reserved.
FILE: Чи-Ли - Время петь!.flac
  Size: 338293126 Hash: 44BAB2A1CFA3DB1B08351972CC6044A8 Accuracy: -m0
  Conclusion: CDDA 100%
  Signature: 28B7E4BDDABA148592178CFD920A78DFB01DDF8D
-
Яндекс.Метрика
Рейтинг@Mail.ru