Elvis Presley - Love, Elvis (2013) [FLAC|Lossless]<Rock'n'Roll>

 

Создавать темы 12-Дек-2014 21:16

-Elvis Presley - Love, Elvis (2013)- Год: 2013
Жанр: Rock'n'Roll
Продолжительность: 01:12:12
Лейбл: BMG / Sony Music
Каталог: 88765440072
Кодек: FLAC (image+.cue + log)
Битрейт: Lossless
Треклист:
01. Are You Lonesome Tonight? (3:08)
02. Can't Help Falling In Love (3:02)
03. Always On My Mind (3:37)
04. It's Now Or Never (3:16)
05. Love Me Tender (2:43)
06. I Want You, I Need You, I Love You (2:41)
07. Don't (2:50)
08. A Fool Such As I (2:39)
09. Any Way You Want Me (2:15)
10. Surrender (1:55)
11. Hawaiian Wedding Song (2:51)
12. Doin' The Best I Can (3:13)
13. Fever (3:34)
14. It Hurts Me (2:29)
15. I Just Can't Help Believin' (4:41)
16. The Wonder Of You (2:41)
17. Let It Be Me (3:33)
18. It's Impossible (2:53)
19. For The Good Times (Alternate Take 3) (3:12)
20. There Goes My Everything (3:00)
21. And I Love You So (3:40)
22. You Don't Have To Say You Love Me (2:32)
23. Unchained Melody (2:33)
24. If I Can Dream (3:10)

Отчёт ЕАС&#58;

Exact Audio Copy V1.0 beta 3 from 29. August 2011
EAC extraction logfile from 16. November 2013, 13:51
Elvis Presley / Love, Elvis
Used drive  : HL-DT-STDVDRAM GH22NS50   Adapter: 2  ID: 0
Read mode               : Secure
Utilize accurate stream : Yes
Defeat audio cache      : Yes
Make use of C2 pointers : No
Read offset correction                      : 667
Overread into Lead-In and Lead-Out          : No
Fill up missing offset samples with silence : Yes
Delete leading and trailing silent blocks   : No
Null samples used in CRC calculations       : Yes
Used interface                              : Native Win32 interface for Win NT & 2000
Used output format              : User Defined Encoder
Selected bitrate                : 1024 kBit/s
Quality                         : High
Add ID3 tag                     : No
Command line compressor         : C:\Program Files (x86)\Exact Audio Copy\FLAC\FLAC.EXE
Additional command line options : -8 -V -T "ARTIST=%artist%" -T "TITLE=%title%" -T "ALBUM=%albumtitle%" -T "DATE=%year%" -T "TRACKNUMBER=%tracknr%" -T "GENRE=%genre%" -T "COMMENT=%comment%" -T "BAND=%albuminterpret%" -T "COMPOSER=%composer%" %haslyrics%--tag-from-file=LYRICS="%lyricsfile%"%haslyrics% -T "DISCNUMBER=%cdnumber%" -T "TOTALDISCS=%totalcds%" -T "TOTALTRACKS=%numtracks%" %hascover%--picture="%coverfile%"%hascover% %source% -o %dest%
TOC of the extracted CD
     Track |   Start  |  Length  | Start sector | End sector
    ---------------------------------------------------------
        1  |  0:00.00 |  3:08.02 |         0    |    14101
        2  |  3:08.02 |  3:02.25 |     14102    |    27776
        3  |  6:10.27 |  3:36.53 |     27777    |    44029
        4  |  9:47.05 |  3:16.10 |     44030    |    58739
        5  | 13:03.15 |  2:43.22 |     58740    |    70986
        6  | 15:46.37 |  2:41.35 |     70987    |    83096
        7  | 18:27.72 |  2:50.20 |     83097    |    95866
        8  | 21:18.17 |  2:39.20 |     95867    |   107811
        9  | 23:57.37 |  2:15.08 |    107812    |   117944
       10  | 26:12.45 |  1:55.02 |    117945    |   126571
       11  | 28:07.47 |  2:51.20 |    126572    |   139416
       12  | 30:58.67 |  3:13.33 |    139417    |   153924
       13  | 34:12.25 |  3:33.70 |    153925    |   169969
       14  | 37:46.20 |  2:29.37 |    169970    |   181181
       15  | 40:15.57 |  4:41.25 |    181182    |   202281
       16  | 44:57.07 |  2:41.05 |    202282    |   214361
       17  | 47:38.12 |  3:33.00 |    214362    |   230336
       18  | 51:11.12 |  2:53.35 |    230337    |   243346
       19  | 54:04.47 |  3:12.28 |    243347    |   257774
       20  | 57:17.00 |  3:00.15 |    257775    |   271289
       21  | 60:17.15 |  3:40.30 |    271290    |   287819
       22  | 63:57.45 |  2:31.67 |    287820    |   299211
       23  | 66:29.37 |  2:32.53 |    299212    |   310664
       24  | 69:02.15 |  3:10.07 |    310665    |   324921
Range status and errors
Selected range
     Filename D:\Media\Music\Lossless\_UPLOAD_\Elvis Presley\2004 - Love, Elvis [2013, K2HD Mastering, Japan]\Elvis Presley - Love, Elvis.wav
     Peak level 98.8 %
     Extraction speed 2.0 X
     Range quality 99.9 %
     Test CRC B0571100
     Copy CRC B0571100
     Copy OK
No errors occurred
AccurateRip summary
Track  1  accurately ripped (confidence 4)  [1603FEFE]  (AR v2)
Track  2  accurately ripped (confidence 4)  [7656A4DD]  (AR v2)
Track  3  accurately ripped (confidence 4)  [515D5FF6]  (AR v2)
Track  4  accurately ripped (confidence 4)  [C04EA20E]  (AR v2)
Track  5  accurately ripped (confidence 4)  [80F58DBE]  (AR v2)
Track  6  accurately ripped (confidence 4)  [FA061150]  (AR v2)
Track  7  accurately ripped (confidence 4)  [ECF32001]  (AR v2)
Track  8  accurately ripped (confidence 4)  [CA1626BF]  (AR v2)
Track  9  accurately ripped (confidence 4)  [0DF505D5]  (AR v2)
Track 10  accurately ripped (confidence 4)  [CC28F67D]  (AR v2)
Track 11  accurately ripped (confidence 4)  [8A74DCF6]  (AR v2)
Track 12  accurately ripped (confidence 4)  [5EC02A4F]  (AR v2)
Track 13  accurately ripped (confidence 4)  [E4CE9B2A]  (AR v2)
Track 14  accurately ripped (confidence 4)  [3B2BC5FF]  (AR v2)
Track 15  accurately ripped (confidence 4)  [B9B6F881]  (AR v2)
Track 16  accurately ripped (confidence 4)  [5EC237BE]  (AR v2)
Track 17  accurately ripped (confidence 4)  [8FD82B8F]  (AR v2)
Track 18  accurately ripped (confidence 4)  [0CB07FCC]  (AR v2)
Track 19  accurately ripped (confidence 4)  [3A9FF831]  (AR v2)
Track 20  accurately ripped (confidence 4)  [DA54E142]  (AR v2)
Track 21  accurately ripped (confidence 4)  [A708E17B]  (AR v2)
Track 22  accurately ripped (confidence 4)  [9EADAC44]  (AR v2)
Track 23  accurately ripped (confidence 4)  [90A6D1A3]  (AR v2)
Track 24  accurately ripped (confidence 4)  [8C1A0D2B]  (AR v2)
All tracks accurately ripped
End of status report
==== Log checksum EE2727919B38D8D877C44F289EAD623F1F6C6F384702D4316934FDFC21D7A3EA ====

Отчёт auCDtect Task manager&#58;

-----------------------
DON'T MODIFY THIS FILE
-----------------------
PERFORMER: auCDtect Task Manager, ver. 1.5.1RC6 build 1.5.1.7
Copyright (c) 2008-2010 y-soft. All rights reserved
http://y-soft.org
ANALYZER: auCDtect: CD records authenticity detector, version 0.8.2
Copyright (c) 2004 Oleg Berngardt. All rights reserved.
Copyright (c) 2004 Alexander Djourik. All rights reserved.
FILE: Elvis Presley - Love, Elvis.flac
  Size: 418997261 Hash: E16348D0C77B40DAAB1577D0AE0FC0DD Accuracy: -m8
  Conclusion: CDDA 100%
  Signature: DEAFA24D2722B77898AEF5672ECA352F4DCDA38E
-
Яндекс.Метрика
Рейтинг@Mail.ru