Smokie - The 25th Anniversary Album (2000) [APE|Lossless]<Pop Rock>

 

Создавать темы 12-Дек-2014 20:38

-Smokie - The 25th Anniversary Album (2000)- Год: 2000
Жанр: Pop Rock
Продолжительность: 01:12:15
Тип рипа: image+.cue
Кодек: APE
Битрейт: Lossless
Треклист:
01. If You Think You Know How To Love Me
02. Lay Back In The Arms Of Someone
03. San Francisco Bay
04. Babe It's Up To You
05. Take Good Care Of My Baby
06. Needles And Pins
07. Living Next Door To Alice
08. Maybe I Just Don't Know
09. Litle Town Flirt
10. Run To Me
11. Look What You're Doin'
12. Not Fade Away
13. Love Is A Battlefield
14. My Girl And Me
15. Reflexions Of My Life
16. For You
17. Oh Carol
18. What Can I Do
19. Let There Be Christmas
20. The Classic Hits Medley

Отчёт ЕАС&#58;

Exact Audio Copy V0.99 prebeta 4 from 23. January 2008
EAC extraction logfile from 2. May 2009, 17:31
Smokie / The 25th Anniversary Album
Used drive : Optiarc DVD RW AD-7173A Adapter: 3 ID: 0
Read mode : Secure
Utilize accurate stream : Yes
Defeat audio cache : Yes
Make use of C2 pointers : No
Read offset correction : 48
Overread into Lead-In and Lead-Out : No
Fill up missing offset samples with silence : Yes
Delete leading and trailing silent blocks : No
Null samples used in CRC calculations : Yes
Used interface : Native Win32 interface for Win NT & 2000
Used output format : Internal WAV Routines
Sample format : 44.100 Hz; 16 Bit; Stereo
TOC of the extracted CD
Track | Start | Length | Start sector | End sector
---------------------------------------------------------
1 | 0:00.00 | 3:26.43 | 0 | 15492
2 | 3:26.43 | 4:06.36 | 15493 | 33978
3 | 7:33.04 | 3:16.26 | 33979 | 48704
4 | 10:49.30 | 3:44.43 | 48705 | 65547
5 | 14:33.73 | 3:25.18 | 65548 | 80940
6 | 17:59.16 | 2:48.32 | 80941 | 93572
7 | 20:47.48 | 3:59.74 | 93573 | 111571
8 | 24:47.47 | 3:04.13 | 111572 | 125384
9 | 27:51.60 | 3:27.37 | 125385 | 140946
10 | 31:19.22 | 4:13.28 | 140947 | 159949
11 | 35:32.50 | 3:41.19 | 159950 | 176543
12 | 39:13.69 | 2:36.74 | 176544 | 188317
13 | 41:50.68 | 4:30.03 | 188318 | 208570
14 | 46:20.71 | 4:42.32 | 208571 | 229752
15 | 51:03.28 | 4:50.24 | 229753 | 251526
16 | 55:53.52 | 4:02.05 | 251527 | 269681
17 | 59:55.57 | 3:42.53 | 269682 | 286384
18 | 63:38.35 | 5:00.65 | 286385 | 308949
19 | 68:39.25 | 3:36.08 | 308950 | 325157
20 | 72:15.33 | 3:59.42 | 325158 | 343124
Range status and errors
Selected range
Filename C:\Documents and Settings\Юрий\Рабочий стол\Новая папка 1\Smokie - The 25th Anniversary Album\Smokie - The 25th Anniversary Album.wav
Peak level 99.0 %
Range quality 99.7 %
Copy CRC 6E74640B
Copy OK
No errors occurred
AccurateRip summary
Track 1 cannot be verified as accurate (confidence 2) [F2583222], AccurateRip returned [B1DD2FFE]
Track 2 cannot be verified as accurate (confidence 2) [BE929C9E], AccurateRip returned [C8341AE8]
Track 3 cannot be verified as accurate (confidence 2) [F3430F1E], AccurateRip returned [D1FE4339]
Track 4 not present in database
Track 5 cannot be verified as accurate (confidence 2) [8689B6B9], AccurateRip returned [4B934300]
Track 6 cannot be verified as accurate (confidence 2) [A93CB2C8], AccurateRip returned [B789DBA2]
Track 7 cannot be verified as accurate (confidence 2) [D03C345A], AccurateRip returned [E5C650AC]
Track 8 not present in database
Track 9 not present in database
Track 10 not present in database
Track 11 not present in database
Track 12 not present in database
Track 13 cannot be verified as accurate (confidence 2) [A2B79C99], AccurateRip returned [A24AFE6A]
Track 14 not present in database
Track 15 not present in database
Track 16 not present in database
Track 17 cannot be verified as accurate (confidence 2) [B2AC479F], AccurateRip returned [A6D52132]
Track 18 not present in database
Track 19 not present in database
Track 20 not present in database
8 track(s) could not be verified as accurate
12 track(s) not present in the AccurateRip database
No tracks could be verified as accurate
You may have a different pressing from the one(s) in the database
End of status report

Отчёт auCDtect Task manager&#58;

-----------------------
DON'T MODIFY THIS FILE
-----------------------
PERFORMER: auCDtect Task Manager, ver. 1.6.0 RC1 build 1.6.0.1
Copyright (c) 2008-2010 y-soft. All rights reserved
http://y-soft.org
ANALYZER: auCDtect: CD records authenticity detector, version 0.8.2
Copyright (c) 2004 Oleg Berngardt. All rights reserved.
Copyright (c) 2004 Alexander Djourik. All rights reserved.
FILE: Smokie - The 25th Anniversary Album.ape
  Size: 517776688 Hash: 6670D634B9EDAF5E547D3178019D4410 Accuracy: -m0
  Conclusion: CDDA 100%
  Signature: B890FAAFCE5979563B84177693540C7D9CD16B45
-
Яндекс.Метрика
Рейтинг@Mail.ru