Modern Boots - Boulevard Of My Dreams (2014) [FLAC|Lossless]<Italo-Disco, Synth-pop, Hi NRG>

 

Создавать темы 12-Дек-2014 20:03

-Modern Boots - Boulevard Of My Dreams (2014)- Год: 06 Jun 2014
Жанр: Italo-Disco, Synth-pop, Hi NRG
Страна: Netherlands
Издатель (лейбл): SP Records
Номер по каталогу: SP 0020
Страна-производитель диска: Russia
Формат: CD, Album, Limited Edition, Golden Plated
Продолжительность: 01:19:18
Кодек: FLAC
Тип рипа: image+.cue
Битрейт: Lossless
Треклист:
01. Hold Me Tight (06:26)
02. Love Is A Game (05:36)
03. Be My Lover (05:32)
04. In The Passion Of My Life (04:32)
05. Give Me The Night, Give Me The Day (05:12)
06. Tell Me The Reason You Said Goodbye (06:44)
07. On Fire (06:10)
08. Feel My Broken Heart (04:34)
09. Boulevard Of My Dreams (05:24)
10. In A World Of Jealousy (06:28)
11. Memories (06:08)
12. All My Life (04:10)
13. Tears Of Broken Heart (07:43)
14. Guinevere (05:18)

Дополнительная информация&#58;

Очередной проект голландца J.K.Van Der Bijl (Beach Club Studio).
Состав:
Lead Vocals & Producer – Ken Martina
Vocals – Elise Dean
Written-By – Kennard Van Der Bijl

Cue - файл&#58;

REM GENRE Disco
REM DATE 2014
REM DISCID C712960E
REM COMMENT "ExactAudioCopy v1.0b3"
PERFORMER "Modern Boots"
TITLE "Boulevard Of My Dreams"
FILE "Modern Boots - Boulevard Of My Dreams.flac" WAVE
  TRACK 01 AUDIO
    TITLE "Hold Me Tight"
    PERFORMER "Modern Boots"
    INDEX 01 00:00:00
  TRACK 02 AUDIO
    TITLE "Love Is A Game"
    PERFORMER "Modern Boots"
    INDEX 00 06:22:21
    INDEX 01 06:24:21
  TRACK 03 AUDIO
    TITLE "Be My Lover"
    PERFORMER "Modern Boots"
    INDEX 00 11:56:72
    INDEX 01 11:58:72
  TRACK 04 AUDIO
    TITLE "In The Passion Of My Life"
    PERFORMER "Modern Boots"
    INDEX 00 17:27:50
    INDEX 01 17:29:50
  TRACK 05 AUDIO
    TITLE "Give Me The Night, Give Me The Day"
    PERFORMER "Modern Boots"
    INDEX 00 21:57:63
    INDEX 01 21:59:63
  TRACK 06 AUDIO
    TITLE "Tell Me The Reason You Said Goodbye"
    PERFORMER "Modern Boots"
    INDEX 00 27:08:50
    INDEX 01 27:10:50
  TRACK 07 AUDIO
    TITLE "On Fire"
    PERFORMER "Modern Boots"
    INDEX 00 33:49:33
    INDEX 01 33:51:33
  TRACK 08 AUDIO
    TITLE "Feel My Broken Heart"
    PERFORMER "Modern Boots"
    INDEX 00 39:54:55
    INDEX 01 39:56:55
  TRACK 09 AUDIO
    TITLE "Boulevard Of My Dreams"
    PERFORMER "Modern Boots"
    INDEX 00 44:26:62
    INDEX 01 44:28:62
  TRACK 10 AUDIO
    TITLE "In A World Of Jealousy"
    PERFORMER "Modern Boots"
    INDEX 00 49:47:18
    INDEX 01 49:49:18
  TRACK 11 AUDIO
    TITLE "Memories"
    PERFORMER "Modern Boots"
    INDEX 00 56:11:46
    INDEX 01 56:13:46
  TRACK 12 AUDIO
    TITLE "All My Life"
    PERFORMER "Modern Boots"
    INDEX 00 62:16:36
    INDEX 01 62:18:36
  TRACK 13 AUDIO
    TITLE "Tears Of A Broken Heart"
    PERFORMER "Modern Boots"
    INDEX 00 66:24:66
    INDEX 01 66:26:66
  TRACK 14 AUDIO
    TITLE "Guinevere"
    PERFORMER "Modern Boots"
    INDEX 00 74:03:46
    INDEX 01 74:05:46

Отчёт ЕАС&#58;

Exact Audio Copy V1.0 beta 3 from 29. August 2011
Отчёт EAC об извлечении, выполненном 6. сентября 2014, 20:29
Modern Boots / Boulevard Of My Dreams
Дисковод: ASUS    DRW-20B1LT   Adapter: 2  ID: 0
Режим чтения                 : Достоверность
Использование точного потока : Да
Отключение кэша аудио        : Да
Использование указателей C2  : Нет
Коррекция смещения при чтении                     : 6
Способность читать области Lead-in и Lead-out     : Нет
Заполнение пропущенных сэмплов тишиной            : Да
Удаление блоков с тишиной в начале и конце        : Нет
При вычислениях CRC использовались нулевые сэмплы : Да
Интерфейс                                         : Встроенный Win32-интерфейс для Win NT/2000
Выходной формат          : Пользовательский кодировщик
Выбранный битрейт        : 128 kBit/s
Качество                 : Высокий
Добавление ID3-тега      : Нет
Утилита сжатия           : C:\Program Files\Exact Audio Copy\Flac\flac.exe
Дополнительные параметры : -V -8 -T "Date=%year%" -T "Genre=%genre%" %source%
TOC извлечённого CD
     Трек |   Старт  | Длительность | Начальный сектор | Конечный сектор
    ---------------------------------------------------------------------
       1  |  0:00.00 |    6:24.21   |           0      |      28820
       2  |  6:24.21 |    5:34.51   |       28821      |      53921
       3  | 11:58.72 |    5:30.53   |       53922      |      78724
       4  | 17:29.50 |    4:30.13   |       78725      |      98987
       5  | 21:59.63 |    5:10.62   |       98988      |     122299
       6  | 27:10.50 |    6:40.58   |      122300      |     152357
       7  | 33:51.33 |    6:05.22   |      152358      |     179754
       8  | 39:56.55 |    4:32.07   |      179755      |     200161
       9  | 44:28.62 |    5:20.31   |      200162      |     224192
      10  | 49:49.18 |    6:24.28   |      224193      |     253020
      11  | 56:13.46 |    6:04.65   |      253021      |     280385
      12  | 62:18.36 |    4:08.30   |      280386      |     299015
      13  | 66:26.66 |    7:38.55   |      299016      |     333420
      14  | 74:05.46 |    5:13.11   |      333421      |     356906
Характеристики диапазона извлечения и сообщения об ошибках
Выбранный диапазон
     Имя файла C:\Documents and Settings\Admin\Мои документы\Modern Boots - Boulevard Of My Dreams.wav
     Пиковый уровень 76.2 %
     Скорость извлечения 5.7 X
     Качество диапазона 100.0 %
     CRC теста 9DBD5DDD
     CRC копии 9DBD5DDD
     Копирование... OK
Ошибок не произошло
AccurateRip: сводка
Трек  1  отсутствует в базе данных
Трек  2  отсутствует в базе данных
Трек  3  отсутствует в базе данных
Трек  4  отсутствует в базе данных
Трек  5  отсутствует в базе данных
Трек  6  отсутствует в базе данных
Трек  7  отсутствует в базе данных
Трек  8  отсутствует в базе данных
Трек  9  отсутствует в базе данных
Трек 10  отсутствует в базе данных
Трек 11  отсутствует в базе данных
Трек 12  отсутствует в базе данных
Трек 13  отсутствует в базе данных
Трек 14  отсутствует в базе данных
Ни одного трека нет в базе AccurateRip
Конец отчёта
==== Контрольная сумма отчёта 483DAA518D5BB1E9DAC2F94E8958F9369DE81DF10614F65EC0C9D904EBF533CE ====

Отчёт auCDtect Task manager&#58;

-----------------------
DON'T MODIFY THIS FILE
-----------------------
PERFORMER: auCDtect Task Manager, ver. 1.0.0 Stable build 1.0.0.0
Copyright (c) 2008, 2009 y-soft. All rights reserved
http://y-soft.110mb.com
ANALYZER: auCDtect: CD records authenticity detector, version 0.8.2
Copyright (c) 2004 Oleg Berngardt. All rights reserved.
Copyright (c) 2004 Alexander Djourik. All rights reserved.
FILE: Modern Boots - Boulevard Of My Dreams.flac
  Size: 613382884 Hash: 4948F69568B85A6964E0F50EA618AD79 Accuracy: -m0
  Conclusion: CDDA 100%
  Signature: A14B6F9C52D6D0361A9076391C6567E9CE0C5FB4
-
Яндекс.Метрика
Рейтинг@Mail.ru