Dan Balan - All The Hits (Orange Exclusiv) (2012) [FLAC|Lossless]<Pop, Dance>

 

Создавать темы 12-Дек-2014 19:40

-Dan Balan - All The Hits (Orange Exclusiv) (2012)- Год: 2012
Страна: Moldova
Лейбл: Loop Productions - VA 0143472
Формат: CD, Compilation
Жанр: Pop, Dance
Продолжительность: 00:52:44
Кодек: FLAC
Тип рипа: image+.cue
Битрейт: Lossless
Треклист:
01. Freedom (3:35)
02. Chica Bomb (3:31)
03. Лишь до утра (3:38)
04. Justify Sex (3:33)
05. Люби (3:55)
06. Despre Tine Cant (Part 2) (4:05)
07. Crazy Loop (Mm-Ma-Ma) (3:20)
08. Не любя (3:16)
09. Лепестками слёз (feat. Вера Брежнева) (3:31)
10. Johanna (Shut Up!) (3:21)
11. Sugar Tunes (3:07)
12. Chica Bomb (Chew Fu Hurt Locker Remix) (3:28)
13. Люби (DJ Sergey Remix) (3:30)
14. Freedom (Club Mix) (3:32)
15. Лишь до утра (Dance Version) (3:22)

Дополнительная информация&#58;

Дан Балан - молдавский музыкант, автор песен и продюсер, бывший солист группы O-Zone, в данный момент проживает в Нью-Йорке, владеет румынским, русским, французским и английским языками.

Cue - файл&#58;

REM GENRE Dance
REM DATE 2012
REM DISCID D10C5B0F
REM COMMENT "ExactAudioCopy v1.0b3"
PERFORMER "Dan Balan"
TITLE "All The Hits"
FILE "Dan Balan - All The Hits.wav" WAVE
  TRACK 01 AUDIO
    TITLE "Freedom"
    PERFORMER "Dan Balan"
    FLAGS DCP
    INDEX 01 00:00:00
  TRACK 02 AUDIO
    TITLE "Chica Bomb"
    PERFORMER "Dan Balan"
    FLAGS DCP
    INDEX 00 03:32:62
    INDEX 01 03:34:62
  TRACK 03 AUDIO
    TITLE "Лишь до утра"
    PERFORMER "Dan Balan"
    FLAGS DCP
    INDEX 00 07:03:46
    INDEX 01 07:05:46
  TRACK 04 AUDIO
    TITLE "Justify Sex"
    PERFORMER "Dan Balan"
    FLAGS DCP
    INDEX 00 10:42:02
    INDEX 01 10:44:02
  TRACK 05 AUDIO
    TITLE "Люби"
    PERFORMER "Dan Balan"
    FLAGS DCP
    INDEX 00 14:14:43
    INDEX 01 14:16:43
  TRACK 06 AUDIO
    TITLE "Despre Tine Cant (Part 2)"
    PERFORMER "Dan Balan"
    FLAGS DCP
    INDEX 00 18:09:43
    INDEX 01 18:11:43
  TRACK 07 AUDIO
    TITLE "Crazy Loop (Mm-Ma-Ma)"
    PERFORMER "Dan Balan"
    FLAGS DCP
    INDEX 00 22:14:22
    INDEX 01 22:16:22
  TRACK 08 AUDIO
    TITLE "Не любя"
    PERFORMER "Dan Balan"
    FLAGS DCP
    INDEX 00 25:33:60
    INDEX 01 25:35:60
  TRACK 09 AUDIO
    TITLE "Лепестками слёз"
    PERFORMER "Dan Balan feat. Вера Брежнева"
    FLAGS DCP
    INDEX 00 28:50:07
    INDEX 01 28:52:07
  TRACK 10 AUDIO
    TITLE "Johanna (Shut Up!)"
    PERFORMER "Dan Balan"
    FLAGS DCP
    INDEX 00 32:20:59
    INDEX 01 32:22:59
  TRACK 11 AUDIO
    TITLE "Sugar Tunes"
    PERFORMER "Dan Balan"
    FLAGS DCP
    INDEX 00 35:42:18
    INDEX 01 35:44:18
  TRACK 12 AUDIO
    TITLE "Chica Bomb (Chew Fu Hurt Locker Remix)"
    PERFORMER "Dan Balan"
    FLAGS DCP
    INDEX 00 38:49:24
    INDEX 01 38:51:24
  TRACK 13 AUDIO
    TITLE "Люби (DJ Sergey Remix)"
    PERFORMER "Dan Balan"
    FLAGS DCP
    INDEX 00 42:17:42
    INDEX 01 42:19:42
  TRACK 14 AUDIO
    TITLE "Freedom (Club Mix)"
    PERFORMER "Dan Balan"
    FLAGS DCP
    INDEX 00 45:47:51
    INDEX 01 45:49:51
  TRACK 15 AUDIO
    TITLE "Лишь до утра (Dance Version)"
    PERFORMER "Dan Balan"
    FLAGS DCP
    INDEX 00 49:19:21
    INDEX 01 49:21:21

Отчёт ЕАС&#58;

Exact Audio Copy V1.0 beta 3 from 29. August 2011
EAC extraction logfile from 7. December 2012, 20:12
Dan Balan / All The Hits
Used drive  : Optiarc DVD RW AD-5280S   Adapter: 2  ID: 1
Read mode               : Secure
Utilize accurate stream : Yes
Defeat audio cache      : Yes
Make use of C2 pointers : No
Read offset correction                      : 48
Overread into Lead-In and Lead-Out          : No
Fill up missing offset samples with silence : Yes
Delete leading and trailing silent blocks   : No
Null samples used in CRC calculations       : Yes
Used interface                              : Installed external ASPI interface
Used output format : Internal WAV Routines
Sample format      : 44.100 Hz; 16 Bit; Stereo
TOC of the extracted CD
     Track |   Start  |  Length  | Start sector | End sector
    ---------------------------------------------------------
        1  |  0:00.00 |  3:34.62 |         0    |    16111
        2  |  3:34.62 |  3:30.59 |     16112    |    31920
        3  |  7:05.46 |  3:38.31 |     31921    |    48301
        4  | 10:44.02 |  3:32.41 |     48302    |    64242
        5  | 14:16.43 |  3:55.00 |     64243    |    81867
        6  | 18:11.43 |  4:04.54 |     81868    |   100221
        7  | 22:16.22 |  3:19.38 |    100222    |   115184
        8  | 25:35.60 |  3:16.22 |    115185    |   129906
        9  | 28:52.07 |  3:30.52 |    129907    |   145708
       10  | 32:22.59 |  3:21.34 |    145709    |   160817
       11  | 35:44.18 |  3:07.06 |    160818    |   174848
       12  | 38:51.24 |  3:28.18 |    174849    |   190466
       13  | 42:19.42 |  3:30.09 |    190467    |   206225
       14  | 45:49.51 |  3:31.45 |    206226    |   222095
       15  | 49:21.21 |  3:22.34 |    222096    |   237279
Range status and errors
Selected range
     Filename D:\Ripped by MisterEco\Dan Balan - All The Hits.wav
     Peak level 98.8 %
     Extraction speed 3.9 X
     Range quality 100.0 %
     Test CRC 0385CF48
     Copy CRC 0385CF48
     Copy OK
No errors occurred
AccurateRip summary
Track  1  not present in database
Track  2  not present in database
Track  3  not present in database
Track  4  not present in database
Track  5  not present in database
Track  6  not present in database
Track  7  not present in database
Track  8  not present in database
Track  9  not present in database
Track 10  not present in database
Track 11  not present in database
Track 12  not present in database
Track 13  not present in database
Track 14  not present in database
Track 15  not present in database
None of the tracks are present in the AccurateRip database
End of status report
---- CUETools DB Plugin V2.1.3
[CTDB TOCID: VB5r8zZ2kt5fcD3evHKnbalLxbM-] disk not present in database, Submit result: VB5r8zZ2kt5fcD3evHKnbalLxbM- has been uploaded
==== Log checksum 34F71EBD5A5F29A919725EF1D06B501FD17A11A5952F0DB383148EB83F790E12 ====

Отчёт auCDtect Task manager&#58;

-----------------------
DON'T MODIFY THIS FILE
-----------------------
PERFORMER: auCDtect Task Manager, ver. 1.0.0 Stable build 1.0.0.0
Copyright (c) 2008, 2009 y-soft. All rights reserved
http://y-soft.110mb.com
ANALYZER: auCDtect: CD records authenticity detector, version 0.8.2
Copyright (c) 2004 Oleg Berngardt. All rights reserved.
Copyright (c) 2004 Alexander Djourik. All rights reserved.
FILE: Dan Balan - All The Hits.flac
  Size: 400940731 Hash: 80A6402310F8C044564B18DFB787EDC7 Accuracy: -m0
  Conclusion: CDDA 100%
  Signature: 742751A113E05364BD1DB10727C3C1F203A6B6E2
-
Яндекс.Метрика
Рейтинг@Mail.ru