Волшебный футбол / Настольный футбол / Metegol / Futbolin (Хуан Хосе Кампанелла / Juan José Campanella) [2013 г., мультфильм, приключения,<wbr> семейный, спорт, BDRip-AVC] MVO (AlexFilm) + Sub (Rus, Eng, Spa) + Original (Spa)

 

Создавать темы 11-Дек-2014 22:01

-Волшебный футбол / Настольный футбол / Metegol / Futbolin- Производство: Испания, Аргентина, Индия, США
Год выпуска: 2013 г.
Жанр: мультфильм, приключения, семейный, спорт
Продолжительность: 01:46:38
Мировая премьера: 18 июля 2013
Российская премьера: 2015
Перевод: Профессиональный (многоголосый, закадровый) [AlexFilm]
Оригинальный аудиопоток: испанский-Режиссер: Хуан Хосе Кампанелла / Juan José Campanella
В ролях: Фабиан Джианола, Горацио Фонтова, Лусия Масьель, Давид Масахник, Пабло Раго, Диего Рамос, Мигель Анхель Родригез, Коко Сили-Описание: История Амадео, застенчивого мальчика с добрым сердцем, и его друзей — отважных футболистов, с помощью которых Амадео должен вернуть себе честь, достоинство и настоящую любовь. Это фильм о дружбе, верности и страсти, действие которого разворачивается на футбольном поле.- -Качество видео: BDRip-AVC
Контейнер: MKV
Видео кодек: H.264
Аудио кодек: AC3
Видео: 1024x424 (2.40:1), 2 537 Kbps, 23.976 fps, 0.244 bit/pix
Аудио: 448 Kbps, 6 ch, 48.0 KHz - Rus
Аудио #2: 448 Kbps, 6 ch, 48.0 KHz - Spa
Cубтитры: Rus, Eng, Spa
Формат субтитров: softsub (SRT)

Media Info

General
Unique ID : 183733501241416645346964606501139901891 (0x8A39C901BD5B7DCE871871D7F6C1EDC3)
Complete name : C:\Users\Ivan\Desktop\Metegol.2013.MVO.BDRip-AVC.mkv
Format : Matroska
Format version : Version 4 / Version 2
File size : 2.56 GiB
Duration : 1h 46mn
Overall bit rate : 3 435 Kbps
Movie name : Rip by LPPI
Encoded date : UTC 2014-11-28 21:17:24
Writing application : mkvmerge v7.3.0 ('Nouages') 64bit built on Oct 22 2014 18:53:34
Writing library : libebml v1.3.0 + libmatroska v1.4.1
Video
ID : 1
Format : AVC
Format/Info : Advanced Video Codec
Format profile : [email protected]
Format settings, CABAC : Yes
Format settings, ReFrames : 8 frames
Codec ID : V_MPEG4/ISO/AVC
Duration : 1h 46mn
Bit rate : 2 537 Kbps
Width : 1 024 pixels
Height : 424 pixels
Display aspect ratio : 2.40:1
Frame rate mode : Constant
Frame rate : 23.976 fps
Color space : YUV
Chroma subsampling : 4:2:0
Bit depth : 8 bits
Scan type : Progressive
Bits/(Pixel*Frame) : 0.244
Stream size : 1.84 GiB (72%)
Title : Волшебный футбол / Настольный футбол / Metegol / Futbolin
Writing library : x264 core 130 r2273 b3065e6
Encoding settings : cabac=1 / ref=8 / deblock=1:-3:-3 / analyse=0x3:0x133 / me=umh / subme=11 / psy=1 / psy_rd=1.00:0.15 / mixed_ref=0 / me_range=48 / chroma_me=1 / trellis=2 / 8x8dct=1 / cqm=0 / deadzone=21,11 / fast_pskip=0 / chroma_qp_offset=-3 / threads=12 / lookahead_threads=2 / sliced_threads=0 / nr=0 / decimate=0 / interlaced=0 / bluray_compat=0 / constrained_intra=0 / bframes=8 / b_pyramid=2 / b_adapt=2 / b_bias=0 / direct=3 / weightb=1 / open_gop=0 / weightp=2 / keyint=250 / keyint_min=23 / scenecut=40 / intra_refresh=0 / rc=2pass / mbtree=0 / bitrate=2537 / ratetol=1.0 / qcomp=0.60 / qpmin=0 / qpmax=69 / qpstep=4 / cplxblur=20.0 / qblur=0.5 / ip_ratio=1.40 / pb_ratio=1.30 / aq=1:1.00
Language : Spanish
Default : Yes
Forced : No
Audio #1
ID : 2
Format : AC-3
Format/Info : Audio Coding 3
Mode extension : CM (complete main)
Format settings, Endianness : Big
Codec ID : A_AC3
Duration : 1h 46mn
Bit rate mode : Constant
Bit rate : 448 Kbps
Channel(s) : 6 channels
Channel positions : Front: L C R, Side: L R, LFE
Sampling rate : 48.0 KHz
Bit depth : 16 bits
Compression mode : Lossy
Stream size : 342 MiB (13%)
Title : MVO (AlexFilm)
Language : Russian
Default : Yes
Forced : No
Audio #2
ID : 3
Format : AC-3
Format/Info : Audio Coding 3
Mode extension : CM (complete main)
Format settings, Endianness : Big
Codec ID : A_AC3
Duration : 1h 46mn
Bit rate mode : Constant
Bit rate : 448 Kbps
Channel(s) : 6 channels
Channel positions : Front: L C R, Side: L R, LFE
Sampling rate : 48.0 KHz
Bit depth : 16 bits
Compression mode : Lossy
Stream size : 342 MiB (13%)
Title : Original
Language : Spanish
Default : No
Forced : No
Text #1
ID : 4
Format : UTF-8
Codec ID : S_TEXT/UTF8
Codec ID/Info : UTF-8 Plain Text
Language : Russian
Default : No
Forced : No
Text #2
ID : 5
Format : UTF-8
Codec ID : S_TEXT/UTF8
Codec ID/Info : UTF-8 Plain Text
Language : English
Default : No
Forced : No
Text #3
ID : 6
Format : UTF-8
Codec ID : S_TEXT/UTF8
Codec ID/Info : UTF-8 Plain Text
Language : Spanish
Default : No
Forced : No

log x.264

x264 [info]: frame I:1447  Avg QP:14.98  size: 90605
x264 [info]: frame P:45339 Avg QP:18.08  size: 24543
x264 [info]: frame B:106620 Avg QP:19.53  size:  7366

Скриншоты


Яндекс.Метрика
Рейтинг@Mail.ru