Битва экстрасенсов. Сезон №15. Выпуск №7 (2014) SATRip

 

Создавать темы 01-Ноя-2014 17:51

-Битва экстрасенсов. Сезон №15. Выпуск №7 (2014) SATRip- Режиссер / Телекомпания: тнт
Год выпуска: 2014
Жанр: Телепередача
Описание:
20 сентября на ТНТ стартует 15-й сезон «Битвы экстрасенсов». Организаторы держат состав участников в строжайшей тайне, лишь намекая, что 15-я битва станет самой народной за всю историю. Новые участники, новыеиспытания и новые чудеса. Но по-прежнему вести шоу будет Марат Башаров, а сомневаться в сверхъестественных способностях участников продолжат скептики братья Сафроновы.
Ведущий: Марат Башаров
Продолжительность: 01:09:21
Качество видео: SATRip
Видеокодек: XviD
Битрейт видео: 1800 kb/s
Размер кадра: 720x400
Аудиокодек: MP3, 2 ch
Битрейт аудио: 128 kb/s

MI

Общее
Полное имя                               : D:\Мужа\Битва экстрасенсов. Сезон №15. Выпуск №7 (2014) SATRip.avi
Формат                                   : AVI
Формат/Информация                        : Audio Video Interleave
Размер файла                             : 961 Мбайт
Продолжительность                        : 1 ч. 9 м.
Общий поток                              : 1937 Кбит/сек
Библиотека кодирования                   : VirtualDub build 32817/release
Видео
Идентификатор                            : 0
Формат                                   : MPEG-4 Visual
Профиль формата                          : Advanced [email protected]
Параметр BVOP формата                    : 2
Параметр QPel формата                    : Нет
Параметр GMC формата                     : Без точки перехода
Параметр матрицы формата                 : Default (MPEG)
Идентификатор кодека                     : XVID
Идентификатор кодека/Подсказка           : XviD
Продолжительность                        : 1 ч. 9 м.
Битрейт                                  : 1800 Кбит/сек
Ширина                                   : 720 пикселей
Высота                                   : 400 пикселей
Соотношение сторон                       : 16:9
Частота кадров                           : 25,000 кадров/сек
Цветовое пространство                    : YUV
Субдискретизация насыщенности            : 4:2:0
Битовая глубина                          : 8 бит
Тип развёртки                            : Прогрессивная
Метод сжатия                             : С потерями
Бит/(Пиксели*Кадры)                      : 0.250
Размер потока                            : 893 Мбайт (93%)
Библиотека кодирования                   : XviD 1.2.1 (UTC 2008-12-04)
Аудио
Идентификатор                            : 1
Формат                                   : MPEG Audio
Версия формата                           : Version 1
Профиль формата                          : Layer 3
Режим                                    : Joint stereo
Идентификатор кодека                     : 55
Идентификатор кодека/Подсказка           : MP3
Продолжительность                        : 1 ч. 9 м.
Вид битрейта                             : Постоянный
Битрейт                                  : 128 Кбит/сек
Каналы                                   : 2 канала
Частота                                  : 48,0 КГц
Метод сжатия                             : С потерями
Размер потока                            : 63,5 Мбайт (7%)
Выравнивание                             : Разделение по промежуткам
Продолжительность промежутка             : 40  мс. (1,00 видеокадр)
Время предзагрузки промежутка            : 500  мс.
Библиотека кодирования                   : LAME3.99r
Настройки программы                      : -m j -V 4 -q 2 -lowpass 17 -b 128
Скриншоты:-Время раздачи: 24/7,
до 5 скачавших.
Яндекс.Метрика
Рейтинг@Mail.ru