[ Сегодня на трекере фрилич! Идет свободное скачивание без начисления Download ]

Шелест воробьиных крыльев / Il frullo del passero/Режиссер: Джанфранко Мингоцци/Жанр:драма, мелодрама(1988) DVDRip

 

Создавать темы 11-Ноя-2013 15:53

Информация о фильме
Название: Шелест воробьиных крыльев
Оригинальное название: Il frullo del passero
Год выхода: 1988
Жанр: драма, мелодрама
Режиссер: Джанфранко Мингоцци
В ролях: Филипп Нуаре, Орнелла Мути, Никола Фаррон, Кьяра Арджелли, Сабрина Ферилли, Роза Ди Бриджида, Клодин Оже, Беппе Черличи, Клаудио Дель Фалько, Мириам Акса
О фильме:
Пожилой мужчина делает юной красавице странное предложение: он хочет рассказывать ей истории своей жизни, и в ответ ждет только внимания. Он дарит ей роскошный дворянский особняк, где работал молодым на богатых хозяев. Очарованная его обаянием, она соглашается, а истории, рассказываемые им о его жизни, непонятным образом происходят в ее теперешней, переплетая реальность с воспоминаниями, более похожими на мечты или чудный сон. Он дарит ей птиц своей юности, и под шорох их крыльев она остается с ним навсегда.

Страна: Италия, Франция
Продолжительность: 01:34:36
Перевод: Профессиональный (двухголосый закадровый), одноголосый закадровый
Файл
Кодек: DivX / MP3
Качество: DVDRip
Видео: DivX, 704 x 392, 25.000 fps, 1791 Kbps, 0.260 Bits/(Pixel*Frame)
Звук:
Аудио №1: MP3, 2.0, 44.1 kHz, 128 kbps, русский (двухголосый)
Аудио №2: MP3, 2.0, 44.1 kHz, 128 kbps, русский (одноголосый)
Аудио №3: MP3, 2.0, 44.1 kHz, 128 kbps, итальянский (оригинал)

Скриншоты

MediaInfo

General
Complete name Il.Frullo.Del.Passero.1988.DVDRip.avi
Format : AVI
Format/Info : Audio Video Interleave
File size : 1.45 GiB
Duration : 1h 34mn
Overall bit rate : 2 194 Kbps
Writing application : VirtualDubMod 1.5.4.1 (build 2178/release)
Writing library : VirtualDubMod build 2178/release
Video
ID : 0
Format : MPEG-4 Visual
Format settings, BVOP : 1
Format settings, QPel : No
Format settings, GMC : No warppoints
Format settings, Matrix : Default (H.263)
Muxing mode : Packed bitstream
Codec ID : DX50
Codec ID/Hint : DivX 5
Duration : 1h 34mn
Bit rate : 1 791 Kbps
Width : 704 pixels
Height : 392 pixels
Display aspect ratio : 16:9
Frame rate : 25.000 fps
Color space : YUV
Chroma subsampling : 4:2:0
Bit depth : 8 bits
Scan type : Progressive
Compression mode : Lossy
Bits/(Pixel*Frame) : 0.260
Stream size : 1.18 GiB (82%)
Writing library : DivX 6.8.5 (UTC 2009-08-20)
Audio #1
ID : 1
Format : MPEG Audio
Format version : Version 1
Format profile : Layer 3
Mode : Joint stereo
Mode extension : MS Stereo
Codec ID : 55
Codec ID/Hint : MP3
Duration : 1h 34mn
Bit rate mode : Constant
Bit rate : 128 Kbps
Channel count : 2 channels
Sampling rate : 44.1 KHz
Compression mode : Lossy
Stream size : 86.6 MiB (6%)
Alignment : Split accross interleaves
Interleave, duration : 40 ms (1.00 video frame)
Interleave, preload duration : 500 ms
Writing library : LAME3.98.2
Audio #2
ID : 2
Format : MPEG Audio
Format version : Version 1
Format profile : Layer 3
Mode : Joint stereo
Mode extension : MS Stereo
Codec ID : 55
Codec ID/Hint : MP3
Duration : 1h 34mn
Bit rate mode : Constant
Bit rate : 128 Kbps
Channel count : 2 channels
Sampling rate : 44.1 KHz
Compression mode : Lossy
Stream size : 86.6 MiB (6%)
Alignment : Split accross interleaves
Interleave, duration : 40 ms (1.00 video frame)
Interleave, preload duration : 500 ms
Writing library : LAME3.98.2
Audio #3
ID : 3
Format : MPEG Audio
Format version : Version 1
Format profile : Layer 3
Mode : Joint stereo
Mode extension : MS Stereo
Codec ID : 55
Codec ID/Hint : MP3
Duration : 1h 34mn
Bit rate mode : Constant
Bit rate : 128 Kbps
Channel count : 2 channels
Sampling rate : 44.1 KHz
Compression mode : Lossy
Stream size : 86.6 MiB (6%)
Alignment : Split accross interleaves
Interleave, duration : 40 ms (1.00 video frame)
Interleave, preload duration : 500 ms
Writing library : LAME3.98.2
Яндекс.Метрика
Рейтинг@Mail.ru