[ Сегодня на трекере фрилич! Идет свободное скачивание без начисления Download ]

(Eurobeat) VA - I Love Eurobeat Vol.1,2 (2CD) - 2003, FLAC (image + .cue), lossless

 

Создавать темы 07-Окт-2014 09:48

--Various Artists - I Love Eurobeat Vol.1,2 (2CD)-- Страна: Spain
Жанр: Eurobeat
Год выпуска: 2003
Формат: FLAC (image + .cue)
Битрейт аудио: lossless
Продолжительность: 02:31:40
Треклист:

I Love Eurobeat Vol.1


01. Aleph - I'm In Danger 05:46
02. Vanessa - Be My Lady 06:20
03. Dandy - I'll Be There 06:24
04. Gipsy & Queen - Love 06:31
05. Coo Coo - Upside Down 07:54
06. Fred Ventura - Imagine 06:24
07. Invidia - Plaza De Toros 06:30
08. Sugar Shake - In The Night 05:29
09. If - Jealousy 06:55
10. Mr. Zivago - Love In Moscow 05:15
11. D-Essex - Victim Of Love 06:12
12. Malcolm J. Hill - Take A Chance 06:28

Продолжительность: 01:16:13

I Love Eurobeat Vol.2


01. Miko Mission - One Step To Heaven 05:01
02. Sophie - My World 06:05
03. Aleph - Black Out 06:06
04. Savage - Goodbye 06:42
05. Valentino - Tonight 07:47
06. Macho Gang - Naughty Boy 05:33
07. Moulin Rouge - Stranger 06:38
08. Dandy - Casanova 06:35
09. McBrian - Loving You Forever 06:04
10. Fred Ventura - The Years (Remix) 06:45
11. Gipsy & Queen - Gipsy Queen (Re-Edit) 05:52
12. Robby Hood & Much More - Moovin' On 06:12

Продолжительность: 01:15:27

Back - I Love Eurobeat Vol.1

Back - I Love Eurobeat Vol.2

Отчеты EAC

Отчет EAC - I Love Eurobeat Vol.1

Exact Audio Copy V0.99 prebeta 4 from 23. January 2008
Отчёт EAC об извлечении, выполненном 9. марта 2008, 23:01
Various / I Love Eurobeat Vol.1
Дисковод: PLEXTOR DVDR PX-810UF Adapter: 2 ID: 0
Режим чтения : Достоверность
Использование точного потока : Да
Отключение кэша аудио : Да
Использование указателей C2 : Нет
Коррекция смещения при чтении : 667
Способность читать области Lead-in и Lead-out : Нет
Заполнение пропущенных сэмплов тишиной : Да
Удаление блоков с тишиной в начале и конце : Нет
При вычислениях CRC использовались нулевые сэмплы : Нет
Интерфейс : Встроенный Win32-интерфейс для Win NT/2000
Выходной формат : Внутренние WAV-операции
Формат сэмплов : 44.100 Гц; 16 бит; стерео
TOC извлечённого CD
Трек | Старт | Длительность | Начальный сектор | Конечный сектор
---------------------------------------------------------------------
1 | 0:00.00 | 5:46.33 | 0 | 25982
2 | 5:46.33 | 6:20.49 | 25983 | 54531
3 | 12:07.07 | 6:24.35 | 54532 | 83366
4 | 18:31.42 | 6:31.69 | 83367 | 112760
5 | 25:03.36 | 7:54.56 | 112761 | 148366
6 | 32:58.17 | 6:24.07 | 148367 | 177173
7 | 39:22.24 | 6:30.02 | 177174 | 206425
8 | 45:52.26 | 5:29.33 | 206426 | 231133
9 | 51:21.59 | 6:55.02 | 231134 | 262260
10 | 58:16.61 | 5:15.54 | 262261 | 285939
11 | 63:32.40 | 6:12.09 | 285940 | 313848
12 | 69:44.49 | 6:28.63 | 313849 | 343011
Характеристики диапазона извлечения и сообщения об ошибках
Выбранный диапазон
Имя файла Z:\Temp\Various - I Love Eurobeat Vol.1.wav
Пиковый уровень 100.0 %
Качество диапазона 100.0 %
CRC копии 2DDE13AD
Копирование... OK
Ошибок не произошло
AccurateRip: сводка
Трек 1 нет в базе данных
Трек 2 нет в базе данных
Трек 3 нет в базе данных
Трек 4 нет в базе данных
Трек 5 нет в базе данных
Трек 6 нет в базе данных
Трек 7 нет в базе данных
Трек 8 нет в базе данных
Трек 9 нет в базе данных
Трек 10 нет в базе данных
Трек 11 нет в базе данных
Трек 12 нет в базе данных
Ни одного трека нет в базе AccurateRip
Конец отчёта

Отчет EAC - I Love Eurobeat Vol.2

Exact Audio Copy V0.99 prebeta 4 from 23. January 2008
Отчёт EAC об извлечении, выполненном 9. марта 2008, 22:38
Various / I Love Eurobeat Vol.2
Дисковод: PLEXTOR DVDR PX-810UF Adapter: 2 ID: 0
Режим чтения : Достоверность
Использование точного потока : Да
Отключение кэша аудио : Да
Использование указателей C2 : Нет
Коррекция смещения при чтении : 667
Способность читать области Lead-in и Lead-out : Нет
Заполнение пропущенных сэмплов тишиной : Да
Удаление блоков с тишиной в начале и конце : Нет
При вычислениях CRC использовались нулевые сэмплы : Нет
Интерфейс : Встроенный Win32-интерфейс для Win NT/2000
Выходной формат : Внутренние WAV-операции
Формат сэмплов : 44.100 Гц; 16 бит; стерео
TOC извлечённого CD
Трек | Старт | Длительность | Начальный сектор | Конечный сектор
---------------------------------------------------------------------
1 | 0:00.00 | 5:01.01 | 0 | 22575
2 | 5:01.01 | 6:05.62 | 22576 | 50012
3 | 11:06.63 | 6:06.57 | 50013 | 77519
4 | 17:13.45 | 6:42.72 | 77520 | 107741
5 | 23:56.42 | 7:47.43 | 107742 | 142809
6 | 31:44.10 | 5:33.70 | 142810 | 167854
7 | 37:18.05 | 6:38.73 | 167855 | 197777
8 | 43:57.03 | 6:35.46 | 197778 | 227448
9 | 50:32.49 | 6:04.62 | 227449 | 254810
10 | 56:37.36 | 6:45.14 | 254811 | 285199
11 | 63:22.50 | 5:52.09 | 285200 | 311608
12 | 69:14.59 | 6:12.54 | 311609 | 339562
Характеристики диапазона извлечения и сообщения об ошибках
Выбранный диапазон
Имя файла Z:\Temp\Various - I Love Eurobeat Vol.2.wav
Пиковый уровень 100.0 %
Качество диапазона 99.9 %
CRC копии DC5FAB6B
Копирование... OK
Ошибок не произошло
AccurateRip: сводка
Трек 1 нет в базе данных
Трек 2 нет в базе данных
Трек 3 нет в базе данных
Трек 4 нет в базе данных
Трек 5 нет в базе данных
Трек 6 нет в базе данных
Трек 7 нет в базе данных
Трек 8 нет в базе данных
Трек 9 нет в базе данных
Трек 10 нет в базе данных
Трек 11 нет в базе данных
Трек 12 нет в базе данных
Ни одного трека нет в базе AccurateRip
Конец отчёта
Blanco y Negro Music
Яндекс.Метрика
Рейтинг@Mail.ru