[ Сегодня на трекере фрилич! Идет свободное скачивание без начисления Download ]

Маша и Медведь: Запутанная история (2014) WEBRip (Серия 45)

 

Создавать темы 29-Авг-2014 22:23

-Маша и Медведь: Запутанная история (2014) WEBRip (Серия 45)- Режиссер / Телекомпания:
Россия
Год выпуска: 2014
Жанр: Компьютерная анимация, Детский
Описание:
Мультсериал про девочку Машу, которая никому не дает покоя, и в первую очередь - своему другу Медведю.
Мультик добрый, веселый, а по качеству намного опережает многие отечественные 3D-мультфильмы, да и некоторые западные 3D мультсериалы.
Сериал показывается в "Спокойной ночи, малыши".
Цель сериала «Маша и Медведь» проста и вместе с тем актуальна - попытаться донести до ребенка вечные истины в понятной и занятной форме, представить мир в его многообразии, выявить позитивные стороны в любой ситуации. Тактично объяснить логику действий в различных проблемных ситуациях. В ненавязчивой форме помочь в борьбе с собственными слабостями. Показать человеческие недостатки и высмеять их, не оскорбляя ничьего достоинства.
Формат - комедийный детский сериал.
Сериал рассчитан в первую очередь на детскую аудиторию (от 3 до 9 лет) и поэтому форма изложения материала будет адаптирована для детского восприятия, но не будет чрезмерно упрощенной. Сериал планируется действительно семейным, интересным для всех возрастов, чтобы взрослые могли посмеяться над приключениями Маши и Медведя, вспомнив собственное детство.
Благодаря тому, что каждая серия является законченной историей с достоверным видеорядом, у зрителей возникает ощущение, что персонажи и их мир действительно существует параллельно с нашим (при этом принцип завершенности каждой серии позволяет комбинировать их в любой последовательности, так чтобы зритель мог понимать и воспринимать сериал, даже пропустив его первые эпизоды).
Режиссер: Олег Кузовков, Владислав Байрамгулов
Персонажи: Алина Кукушкина, Эдуард Назаров, Борис Кутневич
Продолжительность: 00:06:58
Видеокодек: XviD
Битрейт видео: ~1907 Kbit/s
Размер кадра: 688 x 384
Аудиокодек: MP3 2.0
Битрейт аудио: 128 kbit/s

MediaInfo

Формат                           : AVI
Формат/Информация                : Audio Video Interleave
Размер файла                     : 102 Мбайт
Продолжительность                : 6 м. 58 с.
Общий поток                      : 2045 Кбит/сек
Программа кодирования            : VirtualDubMod 1.5.10.3 |
Библиотека кодирования           : VirtualDubMod build 2550/release
Видео
Идентификатор                    : 0
Формат                           : MPEG-4 Visual
Профиль формата                  : Advanced [email protected]
Параметр BVOP формата            : 1
Параметр QPel формата            : Нет
Параметр GMC формата             : Без точки перехода
Параметр матрицы формата         : Default (MPEG)
Идентификатор кодека             : XVID
Идентификатор кодека/Подсказка   : XviD
Продолжительность                : 6 м. 58 с.
Битрейт                          : 1907 Кбит/сек
Ширина                           : 688 пикселей
Высота                           : 384 пикселя
Соотношение сторон               : 16:9
Частота кадров                   : 25,000 кадров/сек
Цветовое пространство            : YUV
Субдискретизация насыщенности    : 4:2:0
Битовая глубина                  : 8 бит
Тип развёртки                    : Прогрессивная
Метод сжатия                     : С потерями
Бит/(Пиксели*Кадры)              : 0.289
Размер потока                    : 95,2 Мбайт (93%)
Библиотека кодирования           : XviD 1.2.1 (UTC 2008-12-04)
Аудио
Идентификатор                    : 1
Формат                           : MPEG Audio
Версия формата                   : Version 1
Профиль формата                  : Layer 3
Идентификатор кодека             : 55
Идентификатор кодека/Подсказка   : MP3
Продолжительность                : 6 м. 58 с.
Вид битрейта                     : Постоянный
Битрейт                          : 128 Кбит/сек
Каналы                           : 2 канала
Частота                          : 44,1 КГц
Метод сжатия                     : С потерями
Размер потока                    : 6,39 Мбайт (6%)
Выравнивание                     : Разделение по промежуткам
Продолжительность промежутка     : 40  мс. (1,00 видеокадр)
Время предзагрузки промежутка    : 500  мс.
Библиотека кодирования           : LAME3.98r
Настройки программы              : -m s -V 4 -q 2 -lowpass 17 -b 128

Скриншоты:

Яндекс.Метрика
Рейтинг@Mail.ru