За тридевять земель / Resan till Fjaderkungens Rike (Эсбен Тофт Якобсен / Esben Toft Jacobsen) [2013 г., мультфильм, фэнтези, HDRip] Dub (Чистый звук) + Original (Eng)

 

Создавать темы 19-Авг-2014 03:01

-За тридевять земель / Resan till Fjaderkungens Rike- Производство: Дания, Швеция / Copenhagen Bombay, Film i Väst
Год выпуска: 2013 г.
Жанр: мультфильм, фэнтези
Продолжительность: 01:18:24
Мировая премьера: 10 февраля 2014
Российская премьера: 17 июля 2014, «Премиум Фильм»
Дата выхода DVD: 28 августа 2014, «CP Дистрибуция»
Перевод: Профессиональный (полное дублирование) [Чистый звук]
Оригинальный аудиопоток: английский-Режиссер: Эсбен Тофт Якобсен / Esben Toft Jacobsen
В ролях: Эдвин Ридинг, Тува Новотны, Густаф Хаммарстен, Леннарт Якель, Сиселла Кайл, Лейф Андре, Сёс Эгелинд, Ларс Бригманн, Флемминг Квист Мюллер-Описание: В поисках своей мамы Йохан попадает в далекое Царство Короля Перьев, откуда нет дороги назад. От судьбы не уйдешь: теперь он должен сам позаботиться о спасении не только своей мамы, но и всего королевства. Но разве можно понимать все тонкости жизни и играть по ее правилам, когда ты еще так молод?- -Качество видео: HDRip
Контейнер: AVI
Видео кодек: XviD
Аудио кодек: AC3
Видео: 720x304 (2.37:1), 23.976 fps, XviD build 50 ~1846 kbps avg, 0.35 bit/pixel
Аудио: 44.1 kHz, AC3 Dolby Digital, 2/0 (L,R) ch, ~192 kbps [Rus]
Аудио #2: 48 kHz, AC3 Dolby Digital, 3/2 (L,C,R,l,r) + LFE ch, ~448 kbps [Eng]
Cубтитры: отсутствуют

Media Info

General
Complete name : D:\Za.TriDevyat.Zemelb.2014.D.HDRip.avi
Format : AVI
Format/Info : Audio Video Interleave
File size : 1.37 GiB
Duration : 1h 18mn
Overall bit rate : 2 494 Kbps
Writing application : VirtualDubMod 1.5.10.2 (build 2540/release)
Video
ID : 0
Format : MPEG-4 Visual
Format profile : Advanced [email protected]
Format settings, BVOP : 2
Format settings, QPel : No
Format settings, GMC : No warppoints
Format settings, Matrix : Custom
Codec ID : XVID
Codec ID/Hint : XviD
Duration : 1h 18mn
Bit rate : 1 847 Kbps
Width : 720 pixels
Height : 304 pixels
Display aspect ratio : 2.35:1
Frame rate : 23.976 fps
Color space : YUV
Chroma subsampling : 4:2:0
Bit depth : 8 bits
Scan type : Progressive
Compression mode : Lossy
Bits/(Pixel*Frame) : 0.352
Stream size : 1.01 GiB (74%)
Writing library : XviD 1.2.1 (UTC 2008-12-04)
Audio #1
ID : 1
Format : AC-3
Format/Info : Audio Coding 3
Codec ID : 2000
Duration : 1h 15mn
Bit rate mode : Constant
Bit rate : 192 Kbps
Channel(s) : 2 channels
Sampling rate : 44.1 KHz
Compression mode : Lossy
Stream size : 104 MiB (7%)
Alignment : Split accross interleaves
Interleave, duration : 43 ms (1.04 video frame)
Interleave, preload duration : 500 ms
Audio #2
ID : 2
Format : AC-3
Format/Info : Audio Coding 3
Mode extension : CM (complete main)
Format settings, Endianness : Big
Codec ID : 2000
Duration : 1h 18mn
Bit rate mode : Constant
Bit rate : 448 Kbps
Channel(s) : 6 channels
Channel positions : Front: L C R, Side: L R, LFE
Sampling rate : 48.0 KHz
Bit depth : 16 bits
Compression mode : Lossy
Stream size : 251 MiB (18%)
Alignment : Split accross interleaves
Interleave, duration : 42 ms (1.00 video frame)
Interleave, preload duration : 500 ms

Скриншоты

Яндекс.Метрика
Рейтинг@Mail.ru