[ Сегодня на трекере фрилич! Идет свободное скачивание без начисления Download ]

(Dance-Pop, Classical) Lindsey Stirling - Lindsey Stirling [Target Deluxe Edition] - 2013, FLAC (tracks+.cue), lossless

 

Создавать темы 18-Авг-2014 17:58

Lindsey Stirling - Lindsey Stirling- Жанр: Dance-Pop, Classical, Dubstep
Страна: США
Год издания: 2013-10-29
Аудиокодек: FLAC
Тип рипа: tracks
Битрейт аудио: lossless
Продолжительность: 01:07:22
Источник: what.cd

  • Electric Daisy Violin [03:16]
  • Zi-Zi's Journey [03:17]
  • Crystallize [04:19]
  • Song of the Caged Bird [03:06]
  • Moon Trance [03:56]
  • Minimal Beat [03:35]
  • Transcendence [03:45]
  • Elements [04:07]
  • Shadows [03:43]
  • Spontaneous Me [03:29]
  • Anti Gravity [03:57]
  • Stars Align [04:52]
  • Crystallize (orchestral version) [04:31]
  • Transcendence (orchestral version) [04:22]
  • Elements (orchestral version) [04:08]
  • Crystallize Mashup (remix by Wild Children) [04:49]
  • My Immortal [04:11]

    Лог создателя рипа

    X Lossless Decoder version 20130720 (144.0)
    XLD extraction logfile from 2013-10-30 01:40:15 -0400
    Lindsey Stirling / Lindsey Stirling
    Used drive : HL-DT-ST DVDRAM GE24NU30 (revision NT00)
    Media type : Pressed CD
    Ripper mode             : XLD Secure Ripper
    Disable audio cache     : OK for the drive with a cache less than 1375KiB
    Make use of C2 pointers : NO
    Read offset correction  : 667
    Max retry count         : 100
    Gap status              : Analyzed, Appended (except HTOA)
    TOC of the extracted CD
         Track |   Start  |  Length  | Start sector | End sector
        ---------------------------------------------------------
            1  | 00:00:00 | 03:15:72 |         0    |    14696
            2  | 03:15:72 | 03:17:00 |     14697    |    29471
            3  | 06:32:72 | 04:18:60 |     29472    |    48881
            4  | 10:51:57 | 03:05:22 |     48882    |    62778
            5  | 13:57:04 | 03:55:72 |     62779    |    80475
            6  | 17:53:01 | 03:35:36 |     80476    |    96636
            7  | 21:28:37 | 03:45:15 |     96637    |   113526
            8  | 25:13:52 | 04:07:32 |    113527    |   132083
            9  | 29:21:09 | 03:43:34 |    132084    |   148842
           10  | 33:04:43 | 03:29:34 |    148843    |   164551
           11  | 36:34:02 | 03:56:66 |    164552    |   182317
           12  | 40:30:68 | 04:52:32 |    182318    |   204249
           13  | 45:23:25 | 04:31:05 |    204250    |   224579
           14  | 49:54:30 | 04:22:10 |    224580    |   244239
           15  | 54:16:40 | 04:08:07 |    244240    |   262846
           16  | 58:24:47 | 04:48:50 |    262847    |   284496
           17  | 63:13:22 | 04:11:27 |    284497    |   303348
    AccurateRip Summary
        Disc not found in AccurateRip DB.
    All Tracks
        Album gain               : -8.91 dB
        Peak                     : 1.000000
        Statistics
            Read error                           : 0
            Jitter error (maybe fixed)           : 0
            Retry sector count                   : 1
            Damaged sector count                 : 0
    Track 01
        Filename : /Volumes/PINEAPPLE ARMY/Uploads/FLAC/Lindsey Stirling - Lindsey Stirling [Target Deluxe Edition] [FLAC]/01 Electric Daisy Violin.flac
        Pre-gap length : 00:02:00
        Track gain               : -7.33 dB
        Peak                     : 1.000000
        CRC32 hash (test run)    : 1A4EA55A
        CRC32 hash               : 1A4EA55A
        CRC32 hash (skip zero)   : 3AE9260B
        AccurateRip v1 signature : 7439827D
        AccurateRip v2 signature : 1D5C9816
            ->Track not present in AccurateRip database.
        Statistics
            Read error                           : 0
            Jitter error (maybe fixed)           : 0
            Retry sector count                   : 0
            Damaged sector count                 : 0
    Track 02
        Filename : /Volumes/PINEAPPLE ARMY/Uploads/FLAC/Lindsey Stirling - Lindsey Stirling [Target Deluxe Edition] [FLAC]/02 Zi-Zi's Journey.flac
        Track gain               : -8.80 dB
        Peak                     : 1.000000
        CRC32 hash (test run)    : B115D692
        CRC32 hash               : B115D692
        CRC32 hash (skip zero)   : 45350A04
        AccurateRip v1 signature : CD46380A
        AccurateRip v2 signature : 97B4A742
            ->Track not present in AccurateRip database.
        Statistics
            Read error                           : 0
            Jitter error (maybe fixed)           : 0
            Retry sector count                   : 0
            Damaged sector count                 : 0
    Track 03
        Filename : /Volumes/PINEAPPLE ARMY/Uploads/FLAC/Lindsey Stirling - Lindsey Stirling [Target Deluxe Edition] [FLAC]/03 Crystallize.flac
        Track gain               : -6.89 dB
        Peak                     : 1.000000
        CRC32 hash (test run)    : 7D9F58C3
        CRC32 hash               : 7D9F58C3
        CRC32 hash (skip zero)   : EC064E9D
        AccurateRip v1 signature : 08189F74
        AccurateRip v2 signature : 6F13ACDB
            ->Track not present in AccurateRip database.
        Statistics
            Read error                           : 0
            Jitter error (maybe fixed)           : 0
            Retry sector count                   : 0
            Damaged sector count                 : 0
    Track 04
        Filename : /Volumes/PINEAPPLE ARMY/Uploads/FLAC/Lindsey Stirling - Lindsey Stirling [Target Deluxe Edition] [FLAC]/04 Song of the Caged Bird.flac
        Track gain               : -7.82 dB
        Peak                     : 1.000000
        CRC32 hash (test run)    : 2268A846
        CRC32 hash               : 2268A846
        CRC32 hash (skip zero)   : 26D5E4BF
        AccurateRip v1 signature : 115EE875
        AccurateRip v2 signature : BC6947CD
            ->Track not present in AccurateRip database.
        Statistics
            Read error                           : 0
            Jitter error (maybe fixed)           : 0
            Retry sector count                   : 0
            Damaged sector count                 : 0
    Track 05
        Filename : /Volumes/PINEAPPLE ARMY/Uploads/FLAC/Lindsey Stirling - Lindsey Stirling [Target Deluxe Edition] [FLAC]/05 Moon Trance.flac
        Track gain               : -9.22 dB
        Peak                     : 1.000000
        CRC32 hash (test run)    : A155C921
        CRC32 hash               : A155C921
        CRC32 hash (skip zero)   : 6A2DD00D
        AccurateRip v1 signature : 4932062F
        AccurateRip v2 signature : 7D3D839D
            ->Track not present in AccurateRip database.
        Statistics
            Read error                           : 0
            Jitter error (maybe fixed)           : 0
            Retry sector count                   : 0
            Damaged sector count                 : 0
    Track 06
        Filename : /Volumes/PINEAPPLE ARMY/Uploads/FLAC/Lindsey Stirling - Lindsey Stirling [Target Deluxe Edition] [FLAC]/06 Minimal Beat.flac
        Track gain               : -8.80 dB
        Peak                     : 1.000000
        CRC32 hash (test run)    : DB72E37E
        CRC32 hash               : DB72E37E
        CRC32 hash (skip zero)   : 84F5100B
        AccurateRip v1 signature : D806E70E
        AccurateRip v2 signature : 06F64CB4
            ->Track not present in AccurateRip database.
        Statistics
            Read error                           : 0
            Jitter error (maybe fixed)           : 0
            Retry sector count                   : 0
            Damaged sector count                 : 0
    Track 07
        Filename : /Volumes/PINEAPPLE ARMY/Uploads/FLAC/Lindsey Stirling - Lindsey Stirling [Target Deluxe Edition] [FLAC]/07 Transcendence.flac
        Track gain               : -7.86 dB
        Peak                     : 1.000000
        CRC32 hash (test run)    : 23A601A8
        CRC32 hash               : 23A601A8
        CRC32 hash (skip zero)   : 1720809C
        AccurateRip v1 signature : 380C0F78
        AccurateRip v2 signature : 950547F9
            ->Track not present in AccurateRip database.
        Statistics
            Read error                           : 0
            Jitter error (maybe fixed)           : 0
            Retry sector count                   : 0
            Damaged sector count                 : 0
    Track 08
        Filename : /Volumes/PINEAPPLE ARMY/Uploads/FLAC/Lindsey Stirling - Lindsey Stirling [Target Deluxe Edition] [FLAC]/08 Elements.flac
        Pre-gap length : 00:00:70
        Track gain               : -8.60 dB
        Peak                     : 1.000000
        CRC32 hash (test run)    : C6EA50BE
        CRC32 hash               : C6EA50BE
        CRC32 hash (skip zero)   : EAFB1640
        AccurateRip v1 signature : 5707EF43
        AccurateRip v2 signature : 36243403
            ->Track not present in AccurateRip database.
        Statistics
            Read error                           : 0
            Jitter error (maybe fixed)           : 0
            Retry sector count                   : 0
            Damaged sector count                 : 0
    Track 09
        Filename : /Volumes/PINEAPPLE ARMY/Uploads/FLAC/Lindsey Stirling - Lindsey Stirling [Target Deluxe Edition] [FLAC]/09 Shadows.flac
        Track gain               : -8.01 dB
        Peak                     : 1.000000
        CRC32 hash (test run)    : 249E4C6B
        CRC32 hash               : 249E4C6B
        CRC32 hash (skip zero)   : 3E8AAECB
        AccurateRip v1 signature : 239C27FC
        AccurateRip v2 signature : 9023E288
            ->Track not present in AccurateRip database.
        Statistics
            Read error                           : 0
            Jitter error (maybe fixed)           : 0
            Retry sector count                   : 0
            Damaged sector count                 : 0
    Track 10
        Filename : /Volumes/PINEAPPLE ARMY/Uploads/FLAC/Lindsey Stirling - Lindsey Stirling [Target Deluxe Edition] [FLAC]/10 Spontaneous Me.flac
        Track gain               : -6.68 dB
        Peak                     : 1.000000
        CRC32 hash (test run)    : 6D58F33D
        CRC32 hash               : 6D58F33D
        CRC32 hash (skip zero)   : E0131DD9
        AccurateRip v1 signature : A7344C7E
        AccurateRip v2 signature : D0BA4346
            ->Track not present in AccurateRip database.
        Statistics
            Read error                           : 0
            Jitter error (maybe fixed)           : 0
            Retry sector count                   : 0
            Damaged sector count                 : 0
    Track 11
        Filename : /Volumes/PINEAPPLE ARMY/Uploads/FLAC/Lindsey Stirling - Lindsey Stirling [Target Deluxe Edition] [FLAC]/11 Anti Gravity.flac
        Track gain               : -8.64 dB
        Peak                     : 1.000000
        CRC32 hash (test run)    : 835954F5
        CRC32 hash               : 835954F5
        CRC32 hash (skip zero)   : 3F1AC851
        AccurateRip v1 signature : 80719EA4
        AccurateRip v2 signature : E700B927
            ->Track not present in AccurateRip database.
        Statistics
            Read error                           : 0
            Jitter error (maybe fixed)           : 0
            Retry sector count                   : 0
            Damaged sector count                 : 0
    Track 12
        Filename : /Volumes/PINEAPPLE ARMY/Uploads/FLAC/Lindsey Stirling - Lindsey Stirling [Target Deluxe Edition] [FLAC]/12 Stars Align.flac
        Pre-gap length : 00:00:57
        Track gain               : -8.61 dB
        Peak                     : 1.000000
        CRC32 hash (test run)    : 40C25902
        CRC32 hash               : 40C25902
        CRC32 hash (skip zero)   : 635D0C8E
        AccurateRip v1 signature : 3E736BC8
        AccurateRip v2 signature : 27D45D1A
            ->Track not present in AccurateRip database.
        Statistics
            Read error                           : 0
            Jitter error (maybe fixed)           : 0
            Retry sector count                   : 1
            Damaged sector count                 : 0
    Track 13
        Filename : /Volumes/PINEAPPLE ARMY/Uploads/FLAC/Lindsey Stirling - Lindsey Stirling [Target Deluxe Edition] [FLAC]/13 Crystallize (orchestral version).flac
        Pre-gap length : 00:02:63
        Track gain               : -9.82 dB
        Peak                     : 1.000000
        CRC32 hash (test run)    : D62D7812
        CRC32 hash               : D62D7812
        CRC32 hash (skip zero)   : 96F83FB0
        AccurateRip v1 signature : C4293338
        AccurateRip v2 signature : E6A5DA90
            ->Track not present in AccurateRip database.
        Statistics
            Read error                           : 0
            Jitter error (maybe fixed)           : 0
            Retry sector count                   : 0
            Damaged sector count                 : 0
    Track 14
        Filename : /Volumes/PINEAPPLE ARMY/Uploads/FLAC/Lindsey Stirling - Lindsey Stirling [Target Deluxe Edition] [FLAC]/14 Transcendence (orchestral version).flac
        Track gain               : -10.06 dB
        Peak                     : 1.000000
        CRC32 hash (test run)    : 46BE6B10
        CRC32 hash               : 46BE6B10
        CRC32 hash (skip zero)   : C0BFF141
        AccurateRip v1 signature : 489A7F72
        AccurateRip v2 signature : 3D55CA67
            ->Track not present in AccurateRip database.
        Statistics
            Read error                           : 0
            Jitter error (maybe fixed)           : 0
            Retry sector count                   : 0
            Damaged sector count                 : 0
    Track 15
        Filename : /Volumes/PINEAPPLE ARMY/Uploads/FLAC/Lindsey Stirling - Lindsey Stirling [Target Deluxe Edition] [FLAC]/15 Elements (orchestral version).flac
        Pre-gap length : 00:01:57
        Track gain               : -8.20 dB
        Peak                     : 1.000000
        CRC32 hash (test run)    : 0C2D6FD2
        CRC32 hash               : 0C2D6FD2
        CRC32 hash (skip zero)   : 16D763F9
        AccurateRip v1 signature : BCDF78F7
        AccurateRip v2 signature : 2C8ABFC8
            ->Track not present in AccurateRip database.
        Statistics
            Read error                           : 0
            Jitter error (maybe fixed)           : 0
            Retry sector count                   : 0
            Damaged sector count                 : 0
    Track 16
        Filename : /Volumes/PINEAPPLE ARMY/Uploads/FLAC/Lindsey Stirling - Lindsey Stirling [Target Deluxe Edition] [FLAC]/16 Crystallize Mashup (remix by Wild Children).flac
        Pre-gap length : 00:01:63
        Track gain               : -9.54 dB
        Peak                     : 1.000000
        CRC32 hash (test run)    : 3A48A0E4
        CRC32 hash               : 3A48A0E4
        CRC32 hash (skip zero)   : 3B3E415F
        AccurateRip v1 signature : C15709D8
        AccurateRip v2 signature : C99B8A6D
            ->Track not present in AccurateRip database.
        Statistics
            Read error                           : 0
            Jitter error (maybe fixed)           : 0
            Retry sector count                   : 0
            Damaged sector count                 : 0
    Track 17
        Filename : /Volumes/PINEAPPLE ARMY/Uploads/FLAC/Lindsey Stirling - Lindsey Stirling [Target Deluxe Edition] [FLAC]/17 My Immortal.flac
        Pre-gap length : 00:01:01
        Track gain               : -8.59 dB
        Peak                     : 0.980072
        CRC32 hash (test run)    : E55BF81A
        CRC32 hash               : E55BF81A
        CRC32 hash (skip zero)   : 1A051B5E
        AccurateRip v1 signature : 663F4DD5
        AccurateRip v2 signature : 1A17D6DC
            ->Track not present in AccurateRip database.
        Statistics
            Read error                           : 0
            Jitter error (maybe fixed)           : 0
            Retry sector count                   : 0
            Damaged sector count                 : 0
    No errors occurred
    End of status report
    -----BEGIN XLD SIGNATURE-----
    oWfPA50qxTk.HUacOXlqWtj9SCMaadIaj4gmkni6YE2gB.HOOqkeQfcPKla2apXRlNTyFcWvadzr0KYO0EzMXh5vHNTmM5.vnluBn5C
    -----END XLD SIGNATURE-----
    Переиздание альбома 2012 года, с бонусными треками.
  • Яндекс.Метрика
    Рейтинг@Mail.ru