(Blues Rock) ZZ Top - The Very Baddest (2CD) - 2014, [FLAC (image + .cue), lossless]

 

Создавать темы 08-Авг-2014 20:11

--ZZ Top - The Very Baddest (2CD)
Страна: USA
Страна производитель диска: USA
Год выпуска: 2014
Лейбл: Warner Bros. Records
Номер по каталогу: R2-543792
Жанр: Blues Rock
Формат: FLAC
тип рипа: (Image + *cue)
Битрейт аудио: Lossless
Продолжительность: 02:29:34
- -

Part 1 || 01:09:41

01. Gimme All Your Lovin' (03:31)
02. Sharp Dressed Man (02:59)
03. La Grange (03:52)
04. Tush (02:16)
05. (Somebody Else Been) Shaking Your Tree (02:35)
06. Francine (03:33)
07. Beer Drinkers & Hell Raisers (03:25)
08. It's Only Love (04:23)
09. Arrested For Driving While Blind (03:06)
10. I Thank You (03:02)
11. Cheap Sunglasses (02:40)
12. Tube Snake Boogie (03:05)
13. Pearl Necklace (04:06)
14. Just Got Paid (04:27)
15. Waitin' For The Bus (02:52)
16. Jesus Just Left Chicago (03:30)
17. Heard It On The X (02:26)
18. I'm Bad, I'm Nationwide (04:52)
19. Dust My Broom (03:08)
20. Velcro Fly (02:54)
21. Party On The Patio (02:48)

лог создания рипа

Exact Audio Copy V1.0 beta 3 from 29. August 2011
Отчёт EAC об извлечении, выполненном 2. августа 2014, 11:25
ZZ Top / The Very Baddest  (Part 1)
Дисковод: PLEXTOR DVDR   PX-880SA   Adapter: 1  ID: 0
Режим чтения                 : Достоверность
Использование точного потока : Да
Отключение кэша аудио        : Да
Использование указателей C2  : Нет
Коррекция смещения при чтении                     : 6
Способность читать области Lead-in и Lead-out     : Нет
Заполнение пропущенных сэмплов тишиной            : Да
Удаление блоков с тишиной в начале и конце        : Нет
При вычислениях CRC использовались нулевые сэмплы : Да
Интерфейс                                         : Установленный внешний ASPI-интерфейс
Выходной формат          : Пользовательский кодировщик
Выбранный битрейт        : 1024 kBit/s
Качество                 : Высокий
Добавление ID3-тега      : Нет
Утилита сжатия           : C:\Program Files\Exact Audio Copy\FLAC\FLAC.EXE
Дополнительные параметры : -10 -V -T "ARTIST=%artist%" -T "ALBUM=%albumtitle%" -T "DATE=%year%" -T "GENRE=%genre%" -T "COMMENT=ripped by izia1956" %source%
TOC извлечённого CD
     Трек |   Старт  | Длительность | Начальный сектор | Конечный сектор
    ---------------------------------------------------------------------
       1  |  0:00.00 |    3:31.58   |           0      |      15882
       2  |  3:31.58 |    2:59.25   |       15883      |      29332
       3  |  6:31.08 |    3:52.59   |       29333      |      46791
       4  | 10:23.67 |    2:16.38   |       46792      |      57029
       5  | 12:40.30 |    2:35.10   |       57030      |      68664
       6  | 15:15.40 |    3:33.45   |       68665      |      84684
       7  | 18:49.10 |    3:25.39   |       84685      |     100098
       8  | 22:14.49 |    4:23.47   |      100099      |     119870
       9  | 26:38.21 |    3:06.44   |      119871      |     133864
      10  | 29:44.65 |    3:01.72   |      133865      |     147511
      11  | 32:46.62 |    2:40.35   |      147512      |     159546
      12  | 35:27.22 |    3:05.27   |      159547      |     173448
      13  | 38:32.49 |    4:06.53   |      173449      |     191951
      14  | 42:39.27 |    4:27.36   |      191952      |     212012
      15  | 47:06.63 |    2:52.60   |      212013      |     224972
      16  | 49:59.48 |    3:30.05   |      224973      |     240727
      17  | 53:29.53 |    2:26.05   |      240728      |     251682
      18  | 55:55.58 |    4:52.69   |      251683      |     273651
      19  | 60:48.52 |    3:08.47   |      273652      |     287798
      20  | 63:57.24 |    2:54.45   |      287799      |     300893
      21  | 66:51.69 |    2:48.33   |      300894      |     313526
Характеристики диапазона извлечения и сообщения об ошибках
Выбранный диапазон
     Имя файла D:\BitComet\ZZ Top - The Very Baddest (2014)(flac)\Part 1\ZZ Top - The Very Baddest  (Part 1).wav
     Пиковый уровень 100.0 %
     Скорость извлечения 3.5 X
     Качество диапазона 100.0 %
     CRC теста 254B9214
     CRC копии 254B9214
     Копирование... OK
Ошибок не произошло
AccurateRip: сводка
Трек  1  отсутствует в базе данных
Трек  2  отсутствует в базе данных
Трек  3  отсутствует в базе данных
Трек  4  отсутствует в базе данных
Трек  5  отсутствует в базе данных
Трек  6  отсутствует в базе данных
Трек  7  отсутствует в базе данных
Трек  8  отсутствует в базе данных
Трек  9  отсутствует в базе данных
Трек 10  отсутствует в базе данных
Трек 11  отсутствует в базе данных
Трек 12  отсутствует в базе данных
Трек 13  отсутствует в базе данных
Трек 14  отсутствует в базе данных
Трек 15  отсутствует в базе данных
Трек 16  отсутствует в базе данных
Трек 17  отсутствует в базе данных
Трек 18  отсутствует в базе данных
Трек 19  отсутствует в базе данных
Трек 20  отсутствует в базе данных
Трек 21  отсутствует в базе данных
Ни одного трека нет в базе AccurateRip
Конец отчёта

содержание индексной карты *cue

REM GENRE "Blues Rock, Southern Rock"
REM DATE 2014
REM DISCID 11105415
REM COMMENT "ExactAudioCopy v1.0b3"
PERFORMER "ZZ Top"
TITLE "The Very Baddest  (Part 1)"
FILE "ZZ Top - The Very Baddest  (Part 1).flac" WAVE
  TRACK 01 AUDIO
    TITLE "Gimme All Your Lovin'"
    PERFORMER "ZZ Top"
    INDEX 01 00:00:00
  TRACK 02 AUDIO
    TITLE "Sharp Dressed Man"
    PERFORMER "ZZ Top"
    INDEX 01 03:31:58
  TRACK 03 AUDIO
    TITLE "La Grange"
    PERFORMER "ZZ Top"
    INDEX 01 06:31:08
  TRACK 04 AUDIO
    TITLE "Tush"
    PERFORMER "ZZ Top"
    INDEX 01 10:23:67
  TRACK 05 AUDIO
    TITLE "(Somebody Else Been) Shaking Your Tree"
    PERFORMER "ZZ Top"
    INDEX 01 12:40:30
  TRACK 06 AUDIO
    TITLE "Francine"
    PERFORMER "ZZ Top"
    INDEX 01 15:15:40
  TRACK 07 AUDIO
    TITLE "Beer Drinkers & Hell Raisers"
    PERFORMER "ZZ Top"
    INDEX 01 18:49:10
  TRACK 08 AUDIO
    TITLE "It's Only Love"
    PERFORMER "ZZ Top"
    INDEX 01 22:14:49
  TRACK 09 AUDIO
    TITLE "Arrested For Driving While Blind"
    PERFORMER "ZZ Top"
    INDEX 01 26:38:21
  TRACK 10 AUDIO
    TITLE "I Thank You"
    PERFORMER "ZZ Top"
    INDEX 01 29:44:65
  TRACK 11 AUDIO
    TITLE "Cheap Sunglasses"
    PERFORMER "ZZ Top"
    INDEX 01 32:46:62
  TRACK 12 AUDIO
    TITLE "Tube Snake Boogie"
    PERFORMER "ZZ Top"
    INDEX 01 35:27:22
  TRACK 13 AUDIO
    TITLE "Pearl Necklace"
    PERFORMER "ZZ Top"
    INDEX 01 38:32:49
  TRACK 14 AUDIO
    TITLE "Just Got Paid"
    PERFORMER "ZZ Top"
    INDEX 01 42:39:27
  TRACK 15 AUDIO
    TITLE "Waitin' For The Bus"
    PERFORMER "ZZ Top"
    INDEX 01 47:06:63
  TRACK 16 AUDIO
    TITLE "Jesus Just Left Chicago"
    PERFORMER "ZZ Top"
    INDEX 01 49:59:48
  TRACK 17 AUDIO
    TITLE "Heard It On The X"
    PERFORMER "ZZ Top"
    INDEX 01 53:29:53
  TRACK 18 AUDIO
    TITLE "I'm Bad, I'm Nationwide"
    PERFORMER "ZZ Top"
    INDEX 01 55:55:58
  TRACK 19 AUDIO
    TITLE "Dust My Broom"
    PERFORMER "ZZ Top"
    INDEX 01 60:48:52
  TRACK 20 AUDIO
    TITLE "Velcro Fly"
    PERFORMER "ZZ Top"
    INDEX 01 63:57:24
  TRACK 21 AUDIO
    TITLE "Party On The Patio"
    PERFORMER "ZZ Top"
    INDEX 01 66:51:69

Part 2 || 01:19:52

01. Viva Las Vegas (04:03)
02. Pincushion (04:33)
03. Legs (03:36)
04. Got Me Under Pressure (04:02)
05. Sleeping Bag (04:06)
06. Rough Boy (03:50)
07. Doubleback (03:57)
08. My Head's In Mississippi (04:25)
09. Give It Up (03:32)
10. Just Got Back From Baby's (04:10)
11. Blue Jean Blues (04:44)
12. She's Just Killing Me (04:57)
13. What's Up With That (05:20)
14. Rhythmeen (03:53)
15. Loaded (03:48)
16. Fearless Boogie (04:01)
17. Mescalero (03:49)
18. Que Lastima (04:26)
19. As Time Goes By (04:32)

лог создания рипа

Exact Audio Copy V1.0 beta 3 from 29. August 2011
Отчёт EAC об извлечении, выполненном 2. августа 2014, 12:27
ZZ Top / The Very Baddest (Part 2)
Дисковод: PLEXTOR DVDR   PX-880SA   Adapter: 1  ID: 0
Режим чтения                 : Достоверность
Использование точного потока : Да
Отключение кэша аудио        : Да
Использование указателей C2  : Нет
Коррекция смещения при чтении                     : 6
Способность читать области Lead-in и Lead-out     : Нет
Заполнение пропущенных сэмплов тишиной            : Да
Удаление блоков с тишиной в начале и конце        : Нет
При вычислениях CRC использовались нулевые сэмплы : Да
Интерфейс                                         : Установленный внешний ASPI-интерфейс
Выходной формат          : Пользовательский кодировщик
Выбранный битрейт        : 1024 kBit/s
Качество                 : Высокий
Добавление ID3-тега      : Нет
Утилита сжатия           : C:\Program Files\Exact Audio Copy\FLAC\FLAC.EXE
Дополнительные параметры : -10 -V -T "ARTIST=%artist%" -T "ALBUM=%albumtitle%" -T "DATE=%year%" -T "GENRE=%genre%" -T "COMMENT=ripped by izia1956" %source%
TOC извлечённого CD
     Трек |   Старт  | Длительность | Начальный сектор | Конечный сектор
    ---------------------------------------------------------------------
       1  |  0:00.00 |    4:02.74   |           0      |      18223
       2  |  4:02.74 |    4:33.27   |       18224      |      38725
       3  |  8:36.26 |    3:36.53   |       38726      |      54978
       4  | 12:13.04 |    4:02.60   |       54979      |      73188
       5  | 16:15.64 |    4:06.36   |       73189      |      91674
       6  | 20:22.25 |    3:50.12   |       91675      |     108936
       7  | 24:12.37 |    3:56.73   |      108937      |     126709
       8  | 28:09.35 |    4:25.05   |      126710      |     146589
       9  | 32:34.40 |    3:32.08   |      146590      |     162497
      10  | 36:06.48 |    4:10.09   |      162498      |     181256
      11  | 40:16.57 |    4:44.30   |      181257      |     202586
      12  | 45:01.12 |    4:57.37   |      202587      |     224898
      13  | 49:58.49 |    5:20.30   |      224899      |     248928
      14  | 55:19.04 |    3:53.30   |      248929      |     266433
      15  | 59:12.34 |    3:48.03   |      266434      |     283536
      16  | 63:00.37 |    4:01.40   |      283537      |     301651
      17  | 67:02.02 |    3:49.50   |      301652      |     318876
      18  | 70:51.52 |    4:26.53   |      318877      |     338879
      19  | 75:18.30 |    4:32.35   |      338880      |     359314
Характеристики диапазона извлечения и сообщения об ошибках
Выбранный диапазон
     Имя файла D:\BitComet\ZZ Top - The Very Baddest (2014)(flac)\Part 2\ZZ Top - The Very Baddest (Part 2).wav
     Пиковый уровень 100.0 %
     Скорость извлечения 3.7 X
     Качество диапазона 100.0 %
     CRC теста E66D4F0E
     CRC копии E66D4F0E
     Копирование... OK
Ошибок не произошло
AccurateRip: сводка
Трек  1  отсутствует в базе данных
Трек  2  отсутствует в базе данных
Трек  3  отсутствует в базе данных
Трек  4  отсутствует в базе данных
Трек  5  отсутствует в базе данных
Трек  6  отсутствует в базе данных
Трек  7  отсутствует в базе данных
Трек  8  отсутствует в базе данных
Трек  9  отсутствует в базе данных
Трек 10  отсутствует в базе данных
Трек 11  отсутствует в базе данных
Трек 12  отсутствует в базе данных
Трек 13  отсутствует в базе данных
Трек 14  отсутствует в базе данных
Трек 15  отсутствует в базе данных
Трек 16  отсутствует в базе данных
Трек 17  отсутствует в базе данных
Трек 18  отсутствует в базе данных
Трек 19  отсутствует в базе данных
Ни одного трека нет в базе AccurateRip
Конец отчёта

содержание индексной карты *cue

REM GENRE "Blues Rock, Southern Rock"
REM DATE 2014
REM DISCID FD12B613
REM COMMENT "ExactAudioCopy v1.0b3"
PERFORMER "ZZ Top"
TITLE "The Very Baddest (Part 2)"
FILE "ZZ Top - The Very Baddest (Part 2).flac" WAVE
  TRACK 01 AUDIO
    TITLE "Viva Las Vegas"
    PERFORMER "ZZ Top"
    INDEX 01 00:00:00
  TRACK 02 AUDIO
    TITLE "Pincushion"
    PERFORMER "ZZ Top"
    INDEX 01 04:02:74
  TRACK 03 AUDIO
    TITLE "Legs"
    PERFORMER "ZZ Top"
    INDEX 01 08:36:26
  TRACK 04 AUDIO
    TITLE "Got Me Under Pressure"
    PERFORMER "ZZ Top"
    INDEX 01 12:13:04
  TRACK 05 AUDIO
    TITLE "Sleeping Bag"
    PERFORMER "ZZ Top"
    INDEX 01 16:15:64
  TRACK 06 AUDIO
    TITLE "Rough Boy"
    PERFORMER "ZZ Top"
    INDEX 01 20:22:25
  TRACK 07 AUDIO
    TITLE "Doubleback"
    PERFORMER "ZZ Top"
    INDEX 01 24:12:37
  TRACK 08 AUDIO
    TITLE "My Head's In Mississippi"
    PERFORMER "ZZ Top"
    INDEX 01 28:09:35
  TRACK 09 AUDIO
    TITLE "Give It Up"
    PERFORMER "ZZ Top"
    INDEX 01 32:34:40
  TRACK 10 AUDIO
    TITLE "Just Got Back From Baby's"
    PERFORMER "ZZ Top"
    INDEX 01 36:06:48
  TRACK 11 AUDIO
    TITLE "Blue Jean Blues"
    PERFORMER "ZZ Top"
    INDEX 01 40:16:57
  TRACK 12 AUDIO
    TITLE "She's Just Killing Me"
    PERFORMER "ZZ Top"
    INDEX 01 45:01:12
  TRACK 13 AUDIO
    TITLE "What's Up With That"
    PERFORMER "ZZ Top"
    INDEX 01 49:58:49
  TRACK 14 AUDIO
    TITLE "Rhythmeen"
    PERFORMER "ZZ Top"
    INDEX 01 55:19:04
  TRACK 15 AUDIO
    TITLE "Loaded"
    PERFORMER "ZZ Top"
    INDEX 01 59:12:34
  TRACK 16 AUDIO
    TITLE "Fearless Boogie"
    PERFORMER "ZZ Top"
    INDEX 01 63:00:37
  TRACK 17 AUDIO
    TITLE "Mescalero"
    PERFORMER "ZZ Top"
    INDEX 01 67:02:02
  TRACK 18 AUDIO
    TITLE "Que Lastima"
    PERFORMER "ZZ Top"
    INDEX 01 70:51:52
  TRACK 19 AUDIO
    TITLE "As Time Goes By"
    PERFORMER "ZZ Top"
    INDEX 01 75:18:30
-- --
Яндекс.Метрика
Рейтинг@Mail.ru