Конструктор русского калибра (2014) HDTVRip

 

Создавать темы 30-Июл-2014 04:52

-Конструктор русского калибра (2014) HDTVRip- Режиссер / Телекомпания: Герман Соколов, Виктор Антипов
Год выпуска: 2014
Жанр: Документальный, Телепередача
Описание:
В 1955 году на экраны страны вышел фильм "Максим Перепелица". Именно в этой комедии, ставшей классикой советского кино, массовый зритель впервые увидел новейшее стрелковое оружие Советской Армии – автомат Калашникова. Ныне этот автомат – один из символов СССР и новой России. Он был принят на вооружение еще в 1949 году, но его сразу же засекретили. Тайной оставался не только его внешний вид, но и вид патронов. После стрельб все гильзы от них тщательно собирали и подсчитывали. Потому что именно в конструкции патрона была половина успеха нового оружия.
И тогда и сейчас мало кто в курсе, что первый русский автомат и патрон нового калибра к нему были изобретены и опробованы еще на заре XX века – в 1905 году. А впервые русский автомат был успешно применен в бою с австрийцами во время Первой мировой войны и даже и помог обратить в бегство противников. Автор первого русского автомата – Владимир Григорьевич Федоров – выдающийся оружейник, генерал Русской императорской, а позже и Советской Армии. Он подготовил плеяду замечательных конструкторов оружия, среди которых Василий Дегтярев, Георгий Шпагин, Сергей Симонов.
Документальный фильм "Конструктор русского калибра" посвящен непростой биографии и открытиям Владимира Григорьевича Федорова – патриарха русских оружейников, чья жизнь и труды прошли, по сути, под грифом "совершенно секретно". Авторы фильма впервые обнародовали неизвестные страницы жизни этого замечательного человека. Несомненно, большой интерес для зрителей представляют уникальные фрагменты кинохроники Первой мировой войны, демонстрация в действии видов стрелкового оружия, которое сконструировал Владимир Федоров и его ученики.
Продолжительность: 00:43:59
Качество видео: HDTVRip
Видеокодек: Xvid
Битрейт видео: ~1450 Кбит/с
Размер кадра: 720x400
Аудиокодек: AC3 2.0
Битрейт аудио: 192 Кбит/с

MediaInfo

Общее
Формат : AVI
Формат/Информация : Audio Video Interleave
Размер файла : 520 Мбайт
Продолжительность : 43 м.
Общий поток : 1651 Кбит/сек
Программа кодирования : VirtualDubMod 1.5.10.3 | www.virtualdub-fr.org || (build 2550/release)
Библиотека кодирования : VirtualDubMod build 2550/release
Видео
Идентификатор : 0
Формат : MPEG-4 Visual
Профиль формата : Advanced [email protected]
Параметр BVOP формата : 1
Параметр QPel формата : Нет
Параметр GMC формата : Без точки перехода
Параметр матрицы формата : Default (H.263)
Идентификатор кодека : XVID
Идентификатор кодека/Подсказка : XviD
Продолжительность : 43 м.
Битрейт : 1450 Кбит/сек
Ширина : 720 пикселей
Высота : 400 пикселей
Соотношение сторон : 16:9
Частота кадров : 25,000 кадров/сек
Цветовое пространство : YUV
Субдискретизация насыщенности : 4:2:0
Битовая глубина : 8 бит
Тип развёртки : Прогрессивная
Метод сжатия : С потерями
Бит/(Пиксели*Кадры) : 0.201
Размер потока : 456 Мбайт (88%)
Библиотека кодирования : XviD 73
Аудио
Идентификатор : 1
Формат : AC-3
Формат/Информация : Audio Coding 3
Расширение режима : CM (complete main)
Параметр Endianness формата : Big
Идентификатор кодека : 2000
Продолжительность : 43 м.
Вид битрейта : Постоянный
Битрейт : 192 Кбит/сек
Каналы : 2 канала
Расположение каналов : Front: L R
Частота : 48,0 КГц
Битовая глубина : 16 бит
Метод сжатия : С потерями
Размер потока : 60,4 Мбайт (12%)
Выравнивание : Разделение по промежуткам
Продолжительность промежутка : 40 мс. (1,00 видеокадр)
Время предзагрузки промежутка : 500 мс.
Скриншоты:
-Время раздачи: С 14:00 до 22:00
Яндекс.Метрика
Рейтинг@Mail.ru